//TJADB Project
TITLE:only my railgun
TITLEJA:only my railgun
SUBTITLE:--fripSide/Toaru Kagaku no Railgun
SUBTITLEJA:「とある科学の超電磁砲」より
BPM:143
WAVE:only my railgun.ogg
OFFSET:-1.947
DEMOSTART:7.970 //Shinuchi:
9770/5360/3480/2310

COURSE:Oni
LEVEL:7
BALLOON:
SCOREINIT:680,2340
SCOREDIFF:190
#START
1000102210001022,
1020102210201020,
1120112011201120,
1, //4
#GOGOSTART
1022102010221020,
1022102011201020,
1220100011201000,
1221001010002000,
1022102010221020,
1022102011201020,
1220100011201000,
1110100011201000,
1022102010221020,
1022102011201020,
1120112011201111,
#GOGOEND
0, //16
2022,
2022,
2022,
2000000022102210,
1022102010220020,
1022102010220020,
1022002010220020,
1022002210211010, //24
1011011020102000,
1110201202102000,
1010100022020020,
1001221020102000,
1011011020102000,
1110201202102000,
1110101020220020,
1110201110112000,
4004004000000000, //33
#GOGOSTART
1022102010221020,
1022102011201020,
1220100011201000,
1221001010002000,
1022102010221020,
1022102011201020,
1220100011201000,
1221001010002000, //41
1022102010221020,
1022102011201020,
1220100011201000,
1221001010002000,
1022102010221020,
1022102011201020,
1220100011201000,
1110100011201000, //49
1022102010221020,
1022102011201020,
1222122210010030,
#GOGOEND
0, //53
#END

COURSE:Hard
LEVEL:6
BALLOON:30
SCOREINIT:850,3750
SCOREDIFF:253
#START
1111,
1111,
1010101011101110,
3, //4
#GOGOSTART
1011101010111010,
1011101010202000,
500000000008000000000000500000000008000000000000,
1001101010003000,
1011101010111010,
1011101010202000,
500000000008000000000000100000200000200000000000,
500000000008000000000000500000000008000000000000,
1011102020111010,
7,
0,
#GOGOEND
8, //16
2022,
2022,
2022,
2233,
1000100010111000,
1000100010111000,
2022200010111000,
500000000000000000000000000000000008000000000000, //24
1011011000101000,
2000202200202000,
1010100011011000,
2002002020202000,
1011011000101000,
2000202200202000,
1000101010110010,
500000000000000000000000000000000008000000000000,
4004004000000000, //33
#GOGOSTART
1011101010111010,
1011101010202000,
500000000008000000000000500000000008000000000000,
1001101010003000,
1011101010111010,
1011101010202000,
500000000008000000000000100000200000200000000000,
3003003000004000, //41
1011101010111010,
1011101010202000,
500000000008000000000000500000000008000000000000,
1001101010003000,
1011101010111010,
1011101010202000,
500000000008000000000000100000200000200000000000,
500000000008000000000000500000000008000000000000, //49
1011102020111010,
6,
000000000008000000000000300000000300000000300000,
#GOGOEND
0, //53
#END

COURSE:Normal
LEVEL:5
BALLOON:8,8
SCOREINIT:970,5800
SCOREDIFF:350
#START
11,
11,
1111,
3, //4
#GOGOSTART
10111011,
10111010,
500000000000000000000000000008000000000000000000,
1140,
10111011,
10111010,
10001110,
1111,
11101110,
1111,
500000000000000000000000000000000000000000000008,
#GOGOEND
0, //16
2,
2,
2,
2011,
1110,
1110,
12,
10011000, //24
10110110,
7008,
10110110,
7008,
10110110,
20220220,
10110110,
500000000000000000000000000000000008000000000000,
4004004000000000, //33
#GOGOSTART
10111011,
10111010,
500000000000000000000000000008000000000000000000,
1140,
10111011,
10111010,
10001110,
1140, //41
10111011,
10111010,
500000000000000000000000000008000000000000000000,
1140,
10111011,
10111010,
10001110,
1111, //49
11101110,
500000000000000000000000000000000000000000000008,
0000000030030030,
#GOGOEND
0, //53
#END

COURSE:Easy
LEVEL:3
BALLOON:15,6,6,15
SCOREINIT:1030,10660
SCOREDIFF:630
#START
11,
11,
11,
3, //4
#GOGOSTART
1110,
1110,
500000000000000000000000000008000000000000000000,
14,
1110,
1110,
500000000000000000000000000008000000000000000000,
1111,
11,
7,
0,
#GOGOEND
8, //16
2,
2,
2,
2011,
11,
1110,
11,
22, //24
1101,
7008,
1101,
7008,
1101,
12,
1011,
500000000000000000000000000000000000000000000008,
00040000, //33
#GOGOSTART
1110,
1110,
500000000000000000000000000008000000000000000000,
14,
1110,
1110,
500000000000000000000000000008000000000000000000,
10010000, //41
1110,
1110,
500000000000000000000000000008000000000000000000,
14,
1110,
1110,
500000000000000000000000000008000000000000000000,
1111, //49
11,
7,
0,
#GOGOEND
8, //53
#END
