//TJADB Project
TITLE:Ame to Petra
TITLEJA:雨とペトラ
SUBTITLE:--Balloon feat. flower
SUBTITLEJA:バルーン feat.flower
BPM:195
WAVE:Ame to Petra.ogg
OFFSET:-1.305
DEMOSTART:62.311

COURSE:Edit
LEVEL:8
BALLOON:3
SCOREINIT:510
SCOREDIFF:120
#START
30000024,
,
3000102011201020,
1000102011201020,
1000102011102010,
2011202010201011,
1000102011201020,
1000102011201020,
1000102011102010,
2011202010201111,
1000102011201020,
1000102011201020,
1000102011102010,
2011202010201011,
1000102011201020,
1000102011201020,
1000102011102010,
20112020
#LYRIC Dareka ga itta 10201000,
31
#LYRIC Itsuka sora wa hai ni natte ochiru tte 11,
1112,
1111,
1000100010022000,
1
#LYRIC Mousou no yo no naka de 111,
111
#LYRIC Hibi o kuratte iru 2,
1111,
10021022
#LYRIC Kyoukaisen o hiite shimau no mo 10000000,
30210120,
1000201011102000,
#LYRIC Kyoukankaku no sei ni shite 10210120,
1000201021102000,
10
#LYRIC Machi no hi no umi de 210120,
100020101110
#LYRIC Ibasho o sagashite iru 2000,
1000201110102000,
1000201120101000,
#LYRIC Doko e yuku ni mo 30110020,
10110020,
1011
#LYRIC Kono ashi wa taikutsu ni somatte ugokanai 0020,
10110120,
10110020,
10110020,
30210040,
10211110,
#LYRIC Sukoshi dake saki no keshiki ga mitai dake nano ni na 30002001,
00102100,
11002001,
0000101120202020,
3000201011102010,
1110201000112000,
30012000,
2002001030
#LYRIC Ame ga futtara ame ga futtara kitto hou o nurashite shimau 000000,
#GOGOSTART
1022102011202020,
1022102011102010,
1110201011112011,
10112010201220
#LYRIC Karete shimatta iro de sura itoshiku naru noni 11,
1110201021102011,
1110201021112010,
1111201120102030,
0022202220
#LYRIC Me o tsumuttara me o tsumuttara motto tooku kasunde shimau 222222,
1022102011202020,
1022102011102010,
1110201011112011,
20112010201220
#LYRIC Urusaku natta ame no oto waraitobashite kure! 11,
1110201021102011,
1110201021112000,
2222202000200040,
04
#LYRIC 047080,
#GOGOEND
1000102011201020,
1000102011201020,
1000102011102010,
2011202010201011,
1000102011201020,
1000102011201020,
1000102011102010,
2011202010201111,
#GOGOSTART
1000102011201020,
1110102011201020,
1110102011102010,
2011202010201011,
1000102011201020,
1110102010222020,
#GOGOEND
30000002,
02222000,
#END

COURSE:Oni
LEVEL:6
BALLOON:5
SCOREINIT:600
SCOREDIFF:140
#START
20202201,
03333222,
10201021,
0011201010002000,
10201021,
0011201010202020,
10201021,
0011201010002000,
10201021,
0011201010202020,
10201021,
0011201010002000,
10201021,
0011201010202020,
10201021,
0011201010002000,
10201021,
0011201010202020,
10201120,
10211020,
10201021,
1010201011102000,
1000200010002011,
11211021,
1000201110102010,
00202222,
1212,
10211020,
1000200010102011,
11210020,
1000200010002011,
11211021,
1000201110102010,
00202210,
30221020,
10121120,
10221020,
10121120,
10221020,
10121021,
10015000,
000000000008000000000000000000000000000000000000,
12,
1121,
12,
1121,
30201120,
1110201000102050,
000000000000000000000000000000000000000008000000,
0000000000222020,
#GOGOSTART
3000101000222020,
1000101020112000,
1000200011102010,
0011201020002010,
0010200011102010,
0010201120000010,
1000101020111050,
000000000000000008000000000000200200200000200000,
3000101000222020,
1000101020112000,
1000200011102010,
0011201020002010,
0010201011102010,
0010201120000040,
40440407,
00800222,
#GOGOEND
10201021,
0011201010002000,
10201021,
0011201010202020,
10201021,
0011201010002000,
10201021,
0011201010202020,
#GOGOSTART
1000200011102010,
0011202010002000,
1000200011102010,
0011202010202020,
1000200011102010,
0011202010002000,
#GOGOEND
30202002,
02222000,
#END

COURSE:Hard
LEVEL:5
BALLOON:3
SCOREINIT:670
SCOREDIFF:160
#START
10101101,
01113000,
10201001,
01211020,
10201001,
01211000,
10201001,
01211020,
10202001,
01211000,
10201001,
01211020,
10201001,
01211000,
10201001,
01211020,
10202001,
01211000,
1212,
10011000,
1212,
11010000,
1212,
11201000,
10210121,
00002222,
1212,
10011000,
10201121,
01210000,
10201021,
01211020,
10210121,
,
12,
1122,
12,
1122,
1121,
10112011,
10015000,
000000000008000000000000000000000000000000000000,
12,
1121,
12,
1121,
3212,
10210125,
000000000000000000000000000000000000000008000000,
00000222,//50
#GOGOSTART
10110222,
10112020,
10201021,
01211001,
01201021,
01211001,
10211025,
000000000000000008000000000000200000200000200000,
10110222,
10112020,
10201021,
01211001,
01201021,
01211003,
30330307,
0800,//66
#GOGOEND
10201001,
01211020,
10201001,
01211000,
10201001,
01211020,
10202001,
01211000,//74
#GOGOSTART
10201021,
01211020,
10201021,
01211020,
10201021,
01211020,//80
#GOGOEND
30202002,
02222000,
,
#END

COURSE:Normal
LEVEL:4
BALLOON:8
#START
,
,
10101001,
0110,
10101001,
0220,
10101001,
0110,
10101002,
0220,
10101001,
0110,
10101001,
0220,
10101001,
0110,
10101002,
0220,
1110,
1,
1110,
1,
00101001,
0110,
5,
000008000000000000000000000000000000000000000000,
1110,
12,
10101001,
00020000,
00101001,
0110,
5,
000008000000000000000000000000000000000000000000,
11,
1110,
11,
1110,
0220,
22,
5,
000008000000000000000000000000000000000000000000,
12,
1110,
12,
1110,
0110,
10110005,
000000000000000000000000000000000008000000000000,
,//50
#GOGOSTART
3304,
3334,
00101011,
00202001,
00101001,
0110,
10101015,
00080000,
3304,
3334,
00101011,
00202001,
00101001,
0110,
7,
0800,//66
#GOGOEND
10101001,
0110,
10101001,
0220,
10101001,
0110,
10101002,
0220,//74
#GOGOSTART
10101001,
01101000,
10101001,
01102000,
10101001,
01101000,//80
#GOGOEND
30000002,
02222000,
,
#END

COURSE:Easy
LEVEL:3
BALLOON:6
#START
,
,
1110,
01,
1110,
02,
1110,
01,
1110,
02,
1110,
01,
1110,
02,
1110,
01,
1110,
02,
1,
1,
1,
,
2,
,
5,
000008000000000000000000000000000000000000000000,
11,
1,
11,
,
2,
,
5,
000008000000000000000000000000000000000000000000,
11,
1,
11,
1,
11,
11,
5,
000008000000000000000000000000000000000000000000,
11,
2,
11,
2,
3,
30000006,
000000000000000000000000000000000008000000000000,
,//50
#GOGOSTART
3300,
3333,
00101005,
000000000000000000000000000000000008000000000000,
0110,
0110,
5,
000000000000000008000000000000000000000000000000,
3300,
3333,
00101005,
000000000000000000000000000000000008000000000000,
0220,
0220,
7,
0800,//66
#GOGOEND
1110,
01,
1110,
02,
1110,
01,
1110,
02,//74
#GOGOSTART
1110,
0110,
1110,
0220,
1110,
0110,//80
#GOGOEND
3,
03,
,
#END
