//TJADB Project
TITLE:Zankyou
TITLEJA:残響
SUBTITLE:--164 feat. GUMI/#C.O.M.P.A.S.S.
SUBTITLEJA:164 feat.GUMI 「戦闘摂理解析システム#コンパス」より
BPM:140
WAVE:Zankyou.ogg
OFFSET:-3.653
DEMOSTART:61.840

COURSE:Edit
LEVEL:9
SCOREINIT:580
SCOREDIFF:150
#START
,
400000000000000000000000000000001010200200200200,
1021002110210020,
1021012110201000,
1021002110210020,
1021012110221200,
1021002110210020,
1021012110201000,
100000200100000000200100100000200100000000201010,
200000200100200100200000101010101010200000000000,
3001210010010020,
000000100100200100000100200000100100200000202020,
1001210010010020,
000000100100200100000100200000101010200100000000,
1001210010010020,
000000100100200100000100200000100100200000202020,
1001210010010020,
000000100100200100001010200200200200200200200200,
1021002110210020,
1021012110201000,
100000200100000000200100100000200100000000201010,
200000200100200100200000101010101010200000000000,
3001210010010020,
000000100100200100000100200000100100200000202020,
1001210010010020,
000000100100200100000100200000101010200100000000,
1001210010010020,
000000100100200100000100200000100100200000202020,
1001210010010020,
000000100100200100000100200000001010100200100000,
3001111011011120,
1001111011011120,
1001111011012010,
201000100010201022202020202020
#SCROLL 1.5
30,
#MEASURE 8/4
#BPMCHANGE 280
#SCROLL 0.75
0020112011201112,
0020112011201121,
0020112011201112,
0020112011211221,
0020112011201112,
1020112011201121,
0020112111201121,
1020112012221223,
0020112011201112,
0020112011201121,
0020112011201112,
0020112011211221,
0020112011201121,
1020112012222222,
#GOGOEND
#MEASURE 4/4
#BPMCHANGE 140
#SCROLL 1
1021002110210020,
1021012110201000,
100000200100000000200100100000200100000000201010,
200000200100200100200000101010101010200000000000,
3,
#END

COURSE:Oni
LEVEL:6
BALLOON:21
SCOREINIT:720
SCOREDIFF:200
#START
,
,
3001201010012010,
1001201010002000,
1001201010012010,
1001201020002000,
1001201010012010,
1001201010002000,
1001201010012010,
1001201020002010,
30211021,
1001201010002000,
1000201010012011,
11221022,
10211021,
1001201010002000,
1000201010012011,
11221020,
3001201010012010,
1001201010002000,
1001201010012010,
1001201020002010,
30211021,
1001201010002000,
1000201010012011,
11221022,
10211021,
1001201010002000,
1000201010012011,
11221020,
1010112010112010,
1010112010112010,
1010112010112010,
500000000000000000000008000000000000000000000
#GOGOSTART
30,
#MEASURE 8/4
#BPMCHANGE 280
#SCROLL 0.5
0020102011104003,
0020102011102011,
0020102011104003,
0020102011102011,
0021002010210020,
1021002010210020,
3021002011104000,
500000000000000000000000000000000000000000000008000000000000000000000000000000000000000000300000,
0020102011104003,
0020102011102011,
0020102011104003,
0020102011102011,
0021002010210020,
1021002010210020,
#GOGOEND
#MEASURE 4/4
#BPMCHANGE 140
#SCROLL 1
7,
8,
1001201010012010,
1001201020002000,
3,
#END

COURSE:Hard
LEVEL:5
BALLOON:12,16
SCOREINIT:980
SCOREDIFF:300
#START
,
,
1001001020020020,
1001001010002000,
1001001020020020,
1001001020002000,
1001001020020020,
1001001010002000,
1001001020020020,
1001001020002000,
10011001,
10212020,
10011001,
20221020,
10011001,
10211020,
10011001,
20221020,
1001001020020020,
1001001010002000,
1001001020020020,
1001001020002000,
10011001,
10211020,
10011001,
20221020,
10011001,
10211020,
10011001,
20221020,
1002,
10010020,
10010020,
100000000000000
#GOGOSTART
6,
#MEASURE 8/4
#BPMCHANGE 280
#SCROLL 0.5
000000000000000000000000000000000000000000000008000000000000000000000000300000000000000000600000,
000000000000000000000008000000000000000000000000100000000000100000000000100000000000000000600000,
000000000000000000000000000000000000000000000008000000000000000000000000300000000000000000600000,
000000000000000000000008000000000000000000000000100000000000100000000000100000000000100000100000,
0002001010020010,
1002001010020010,
7008,
3000000000000006,
000000000000000000000000000000000000000000000008000000000000000000000000300000000000000000600000,
000000000000000000000008000000000000000000000000100000000000100000000000100000000000000000600000,
000000000000000000000000000000000000000000000008000000000000000000000000300000000000000000600000,
000000000000000000000008000000000000000000000000100000000000100000000000100000000000100000100000,
0002001010020010,
1002001010020010,
#GOGOEND
#MEASURE 4/4
#BPMCHANGE 140
#SCROLL 1
7,
8,
1001001020020020,
1001001020002000,
3,
#END

COURSE:Normal
LEVEL:4
BALLOON:7,10
SCOREINIT:1300
SCOREDIFF:563
#START
,
,
31,
1012,
11,
1022,
11,
1012,
11,
1022,
11,
10111020,
11,
20222020,
11,
10111020,
11,
20222020,
11,
1012,
11,
1022,
11,
10111020,
11,
20222020,
11,
10111020,
11,
20222020,
1001,
1001,
1001,
200000000000000
#GOGOSTART
6,
#MEASURE 8/4
#BPMCHANGE 280
#SCROLL 0.5
000000000000000000000000000000000000000000000008000000000000000000000000300000000000000000300000,
0000000010101006,
000000000000000000000000000000000000000000000008000000000000000000000000300000000000000000300000,
0000000010101005,
000000000000000000000008000000000000000000000000200000000000000000000000000000000000000000000000,
500000000000000000000008000000000000000000000000200000000000000000000000000000000000000000000000,
7008,
3000000000000006,
000000000000000000000000000000000000000000000008000000000000000000000000300000000000000000300000,
0000000010101006,
000000000000000000000000000000000000000000000008000000000000000000000000300000000000000000300000,
0000000010101005,
000000000000000000000008000000000000000000000000200000000000000000000000000000000000000000000000,
500000000000000000000008000000000000000000000000200000000000000000000000000000000000000000000000,//51
#GOGOEND
#MEASURE 4/4
#BPMCHANGE 140
#SCROLL 1
7,
8,
11,
1022,
3,
#END

COURSE:Easy
LEVEL:2
BALLOON:5,8
SCOREINIT:1290
SCOREDIFF:893
#START
,
,
31,
1011,
11,
1011,
11,
1011,
11,
1011,
11,
1,
11,
2,
11,
1,
11,
2,
11,
1011,
11,
1011,
11,
1,
11,
2,
11,
1,
11,
2,
1,
1,
1,
100000000000000
#GOGOSTART
6,
#MEASURE 8/4
#BPMCHANGE 280
#SCROLL 0.5
000000000000000000000000000000000000000000000000000000000000000000000000000000000000000008000000,
0000000010001006,
000000000000000000000000000000000000000000000000000000000000000000000000000000000000000008000000,
0000000010001005,
000000000000000000000008000000000000000000000000100000000000000000000000000000000000000000000000,
500000000000000000000008000000000000000000000000100000000000000000000000000000000000000000000000,
7008,
3000000000000006,
000000000000000000000000000000000000000000000000000000000000000000000000000000000000000008000000,
0000000010001006,
000000000000000000000000000000000000000000000000000000000000000000000000000000000000000008000000,
0000000010001005,
000000000000000000000008000000000000000000000000100000000000000000000000000000000000000000000000,
500000000000000000000008000000000000000000000000100000000000000000000000000000000000000000000000,//51
#GOGOEND
#MEASURE 4/4
#BPMCHANGE 140
#SCROLL 1
7,
8,
11,
1011,
3,
#END
