//TJADB Project
TITLE:Choujikuu Adventure
TITLEJA:超時空アドベンチャー
SUBTITLE:--Torine feat. Saori Terai
SUBTITLEJA:「太鼓の達人 どんとかつの時空大冒険」テーマソング
BPM:150
WAVE:Choujikuu Adventure.ogg
OFFSET:-4.905
DEMOSTART:5.505

COURSE:Oni
LEVEL:6
BALLOON:24,25
SCOREINIT:620
SCOREDIFF:140
#START
#GOGOSTART
0000001110201010,
0000001110102010,
0000001110101020,
00110303,
0030001110201010,
0020201110102010,
0010104000102210,
11030303,
0022201010221020,
7,
0008,//14
#GOGOEND
10200223,
03030300,
1000200000112010,
1000200000112010,
41120110,
02202200,
2022022040000011,
1001102000102000,
1001102000101020,
100000000000100000500000000000000000000000000008,
0000000011101110,
1001102000102000,
1001102000101020,
100000000100100000500000000000000000000000000008,
0000000011101020,
1001201010012010,
0022201022202010,
1001201010012010,
0022201022202010,
1002102010222000,
1002102010222010,
10150000,
000000000008000000000000000000000000200000000000,
1001201010012010,
0022201011202010,
1001201010012010,
0022201011202010,
1002102010222010,
1002102000222000,
30230230,
23023230,
500000000000000000000000000000000000000008000000,
4000001120201010,//47
#GOGOSTART
0000001120102010,
0000001120101020,
00210404,
0030001120201010,
0010201120102010,
0011204000102210,
11030303,
0022201120201010,
0011201011202010,
0011201011202010,
0011204000300030,
0030001120201010,
0020201120102010,
0010104000102210,
11030303,
0022201010221020,//63
#GOGOEND
7,
0008,
1001201010111010,
02020200,
1001201010222010,
1001201010222000,
1022101000201000,
04404400,
0000000022220220,
3,
#END

COURSE:Hard
LEVEL:6
BALLOON:12,16
#START
#GOGOSTART
#BARLINEOFF
,
,
,
#BARLINEON
00010211,
00010211,
00011211,
00110303,
03010211,
00010211,
00040000,
11030303,
00011010,
7,
0008,//14
#GOGOEND
10200223,
03030300,
10200120,
10200120,
10220110,
03303300,
2010200040000011,
10120120,
10120120,
100000000000000000500000000000000000000000000008,
0000000010001011,
10120120,
10120120,
100000000000000000500000000000000000000000000008,
0000000010001011,
10220202,
00101220,
10220202,
00101220,
1000201110002000,
1000201110001010,
10115000,
000000000008000000000000000000000000200000000000,
10110202,
0010200011102000,
10110202,
0000200011102000,
1000102010111000,
1000102000111000,
30230230,
23021210,
500000000000000000000000000000000000000008000000,
4000001110201010,//47
#GOGOSTART
0000001110201010,
0000001110201010,
00110303,
0030001110201010,
0020201110201010,
01140220,
11030303,
0020201110201010,
0020201110102010,
0020201110101020,
00120303,
0030001110201010,
0020201110102010,
0010104000222000,
11020202,
00011020,//63
#GOGOEND
7,
0008,
10200121,
04040400,
10200120,
10210220,
1011101000101000,
04404400,
0000000020220220,
3,
,
#END

COURSE:Normal
LEVEL:5
BALLOON:12,12
#START
#GOGOSTART
#BARLINEOFF
,
,
,
#BARLINEON
00001011,
00001011,
00001011,
00110303,
03001011,
00001011,
00040000,
11030303,
00022020,
7,
0008,//14
#GOGOEND
10000003,
03030300,
11,
1210,
10010010,
03303300,
,
1110,
1210,
100000000000000000500000000000000000000000000008,
01,
1110,
1210,
100000000000000000500000000000000000000000000008,
0001,
20220202,
0001,
20220202,
,
10022000,
10022000,
100000000000000000500000000000000000000000000008,
0001,
20220202,
0011,
20220202,
,
10011010,
10110000,
30030030,
03003050,
000000000000000000000000000000000000000008000000,
40001011,//47
#GOGOSTART
00001011,
00001011,
00110303,
03001011,
00201011,
00040000,
11030303,
00001022,
00201022,
00201022,
00220303,
03001022,
00201022,
00040000,
11020202,
00022020,//63
#GOGOEND
7,
0008,
10100203,
03030300,
10100220,
10100220,
10110110,
03303300,
0022,
3,
,
#END

COURSE:Easy
LEVEL:4
BALLOON:10,10
#START
#GOGOSTART
#BARLINEOFF
,
,
,
#BARLINEON
00001001,
00001001,
00001001,
00030003,
03001001,
00001001,
00040000,
10030303,
0011,
7,
0008,//14
#GOGOEND
10000003,
03030300,
11,
1,
500000000000000000000000000000000008000000000000,
04004000,
,
11,
1110,
100000000000000000500000000000000000000008000000,
,
12,
1110,
100000000000000000500000000000000000000008000000,
,
1120,
12,
1120,
12,
12,
12,
10050000,
000000000008000000000000000000000000000000000000,
1120,
12,
1120,
12,
11,
11,
30030030,
03003050,
000000000000000000000000000008000000000000000000,
40001001,//47
#GOGOSTART
00001001,
00001001,
00030303,
03001001,
00001001,
00040000,
30030303,
00001002,
00001002,
00001001,
00030303,
03001001,
00001001,
00040000,
10020202,
0011,//63
#GOGOEND
7,
0008,
10000002,
02020200,
12,
1120,
10010010,
03303300,
0022,
3,
,
#END
