//TJADB Project
TITLE:Etude Op. 10-4
TITLEJA:練習曲Op.10-4
SUBTITLE:--Frédéric Chopin
BPM:167
OFFSET:-1.673
WAVE:Etude Op. 10-4.ogg
DEMOSTART:1.673

COURSE:Edit
LEVEL:10
SCOREINIT:350
SCOREDIFF:90
#START
3022102212221022,
1022102212221022,
#BPMCHANGE 177
#SCROLL 0.94
1222122212221210,
#BPMCHANGE 151
#SCROLL 1.11
200200100100201110200000,
#BPMCHANGE 167
#SCROLL 1
1022102212221022,
1022102212221022,
1011201210211010,
100000200100000200100000100020202000100000200000,
1022102212221022,
1022102212221022,
#BPMCHANGE 177
#SCROLL 0.94
1222122212212120,
#BPMCHANGE 151
#SCROLL 1.11
100000100000200000200000100020202000
#SCROLL 1.34
#BPMCHANGE 125
100000000000,
#BPMCHANGE 167
#SCROLL 1
1020220212221020,
1020220212221020,
1020120212221020,//15
#GOGOSTART
100200100100200010001000100000000000400000000000,
1020112010201120,
1020112112021110,
200200000020010000200100100100000020010000200100,
100100000020010000200100100000100100200000000000,
1020112010201120,
1020112112021110,
200200000010020000200100100200000010020000200100,
100200000010020000200100100000200000200200200200,
1021201210212021,
1021201210212021,
1010201210102012,
1010201210102110,
1011210210121021,
1011210210121021,
12211021
#SCROLL 1.11
#BPMCHANGE 151
#GOGOEND
12211020,//31
#BPMCHANGE 136
#SCROLL 1.23
100020002000100020002000100200200100200200100100,
#BPMCHANGE 151
#SCROLL 1.11
1000200021112022,
000100200200100010001000200000100100200000200000,
#BPMCHANGE 172
#SCROLL 0.97
1000212212221221,
2221221222122100,
#SCROLL 1.11
#BPMCHANGE 151
1000200021112022,
000100200200100020002000200020202000100000200000,
#BPMCHANGE 172
#SCROLL 0.97
1000212212221221,
2221221222122101,//40
#GOGOSTART
#SCROLL 1.03
#BPMCHANGE 162
1021021120210120,
1021021120120210,
2112021122120211,
2112021122120211,//44
#GOGOEND
#BPMCHANGE 151
#SCROLL 1.11
200000200200200020002000100200200200100200200200,
1222122212221222,
#SCROLL 1
#BPMCHANGE 167
10202023,
30202023,
3,
0000000000002211,
1022102212221022,
1022102212221022,
#BPMCHANGE 177
#SCROLL 0.94
1222122212221210,
#SCROLL 1.11
#BPMCHANGE 151
200200100100201110200000,
#BPMCHANGE 167
#SCROLL 1
1022102212221022,
1022102212221022,
1012202120221020,
100000100200000100200000100020202000100000200000,
1022102212221022,
1222102212221022,
1222122212212120,
#BPMCHANGE 151
#SCROLL 1.11
100000100000200000200000100020202000
#SCROLL 1.34
#BPMCHANGE 125
100000000000,
#BPMCHANGE 167
#SCROLL 1
1020220212221020,
1020220212221020,
1020120212221020,
1022120212201111,
1020112010201120,
1020112112021010,
300000000111200000400000,
#BPMCHANGE 157
#SCROLL 1.06
300000100100200200201010
#SCROLL 1.18
#BPMCHANGE 141
100000000000300000000000,
#BPMCHANGE 157
#SCROLL 1.06
3000221122112211,
#BPMCHANGE 167
#SCROLL 1
200200100100200200100100200100200100200100201010,
1000112211221122,
100100200200100100200200100200100200100200102020,
2000122212221222,
1022102120121022,
1022122212221222,
1112112112112112,
#BPMCHANGE 141
#SCROLL 1.18
10000021
#SCROLL 1
#BPMCHANGE 167
11211211,
2211221122111121,
#BPMCHANGE 125
#SCROLL 1.34
100000000001110000000022,
2,
#END

COURSE:Oni
LEVEL:9
BALLOON:4,4
SCOREINIT:330
SCOREDIFF:90
#START
1022202220222022,
2022202220222220,
#BPMCHANGE 177
#SCROLL 0.94
1221122112211221,
#BPMCHANGE 151
#SCROLL 1.11
1020201020112000,
#BPMCHANGE 167
#SCROLL 1
1022202220222022,
2022202220222220,
1010400210104002,
1022022022112210,
1022202220222022,
2022202220222220,
#BPMCHANGE 177
#SCROLL 0.94
1221122112211221,
#BPMCHANGE 151
#SCROLL 1.11
102020102011
#BPMCHANGE 125
#SCROLL 1.34
2000,
#BPMCHANGE 167
#SCROLL 1
2022202220221022,
2022202220221022,
2022202220221000,//15
#GOGOSTART
2211221120004000,
1020112010201120,
1112111211112000,
1010111010101110,
1010111011104000,
1020112010201120,
1112111211112000,
2001201020102010,
2111201020102222,
1022202222104011,
1022202222104011,
1020102110201021,
1020102110102210,
30413041,
30413040,
10221022
#BPMCHANGE 151
#SCROLL 1.11
#GOGOEND
10221022,//31
#BPMCHANGE 136
#SCROLL 1.23
1022102210221000,
#BPMCHANGE 151
#SCROLL 1.11
3000200021112000,
2212102020021020,
#BPMCHANGE 172
#SCROLL 0.97
3000222211112222,
1111222211112222,
#BPMCHANGE 151
#SCROLL 1.11
1000200021112000,
200200100200100020002000700000000000800000000000,
#BPMCHANGE 172
#SCROLL 0.97
3000221222122212,
2212221222121111,//40
#BPMCHANGE 162
#SCROLL 1.03
#GOGOSTART
1221221210212212,
1221221210212212,
1221221210212212,
1021221210212212,//44
#BPMCHANGE 151
#SCROLL 1.11
#GOGOEND
1000000000000112,
2112211221122111,
#BPMCHANGE 167
#SCROLL 1
1222,
1222,
3,
0000000000002211,
1022202220222022,
2022202220222220,
#BPMCHANGE 177
#SCROLL 0.94
1221122112211221,
#BPMCHANGE 151
#SCROLL 1.11
1020201020112000,
#BPMCHANGE 167
#SCROLL 1
1022202220222022,
2022202220222220,
1010400210104002,
100200200100100000100200200100100000201010100000,
1022202220222022,
2022202220222220,
1221122112211221,
#BPMCHANGE 151
#SCROLL 1.11
102020102011
#BPMCHANGE 125
#SCROLL 1.34
2000,
#BPMCHANGE 167
#SCROLL 1
2022202220221022,
2022202220221022,
2022202220221022,
1022102210221111,
1020112010201120,
1120112022112222,
100000000011200000000000,
#BPMCHANGE 157
#SCROLL 1.06
43
#BPMCHANGE 141
#SCROLL 1.18
33,
#BPMCHANGE 157
#SCROLL 1.06
3000111211121112,
#BPMCHANGE 167
#SCROLL 1
1112111211121110,
3000211221122112,
2112211221122110,
3,
2022202220222022,
1022102210221022,
1022111122221111,
#BPMCHANGE 141
#SCROLL 1.18
100000000000000000000000
#BPMCHANGE 167
#SCROLL 1
500000000000008000000000,
2078,
#BPMCHANGE 125
#SCROLL 1.34
1000000040000001,
1,
#END

COURSE:Hard
LEVEL:8
BALLOON:12,12
SCOREINIT:490
SCOREDIFF:110
#START
12121212,
1020102010201110,
#BPMCHANGE 177
#SCROLL 0.94
1010222010102220,
#BPMCHANGE 151
#SCROLL 1.11
12212130,
#BPMCHANGE 167
#SCROLL 1
12121212,
1020102010201110,
11401140,
1022022010103000,
12121212,
1020102010201110,
#BPMCHANGE 177
#SCROLL 0.94
1010222010102220,
#BPMCHANGE 151
#SCROLL 1.11
122121
#BPMCHANGE 125
#SCROLL 1.34
30,
#BPMCHANGE 167
#SCROLL 1
2221,
2221,
2221,//15
#GOGOSTART
1100110020004000,
1010111010101110,
1110111011112000,
1001101010102000,
1001101010102000,
1010111010101110,
1110111011112000,
2001101010101000,
2001101010101000,
1022202220103000,
1022202220103000,
12121212,
12121210,
30013000,
30013000,
1212
#BPMCHANGE 151
#SCROLL 1.11
#GOGOEND
1212,//31
#BPMCHANGE 136
#SCROLL 1.23
12121210,
#BPMCHANGE 151
#SCROLL 1.11
3000000011112000,
1111202020000000,
#BPMCHANGE 172
#SCROLL 0.97
3700,
0000080000003000,
#BPMCHANGE 151
#SCROLL 1.11
1000000011112000,
1111202020000000,
#BPMCHANGE 172
#SCROLL 0.97
3700,
0000080000000000,//40
#BPMCHANGE 162
#SCROLL 1.03
#GOGOSTART
1001001110010012,
1001001110210011,
1001001110010012,
1001001210010012,//44
#BPMCHANGE 151
#SCROLL 1.11
#GOGOEND
1,
500000000000000000000000000008000000000000000000,
#BPMCHANGE 167
#SCROLL 1
1222,
1222,
3,
,
12121212,
1020102010201110,
#BPMCHANGE 177
#SCROLL 0.94
1010222010102220,
#BPMCHANGE 151
#SCROLL 1.11
12212130,
#BPMCHANGE 167
#SCROLL 1
12121212,
1020102010201110,
11401140,
1022022010103000,
12121212,
1020102010201110,
1010222010102220,
#BPMCHANGE 151
#SCROLL 1.11
122121
#BPMCHANGE 125
#SCROLL 1.34
30,
#BPMCHANGE 167
#SCROLL 1
2221,
2221,
2221,
2223,
1010111010101110,
1110111011112000,
34,
#BPMCHANGE 157
#SCROLL 1.06
43
#BPMCHANGE 141
#SCROLL 1.18
33,
#BPMCHANGE 157
#SCROLL 1.06
3000111022201110,
#BPMCHANGE 167
#SCROLL 1
2220111022201110,
3000111022201110,
2220111022201110,
3,
2222,
12121212,
1020111022201110,
#BPMCHANGE 141
#SCROLL 1.18
1
#BPMCHANGE 167
#SCROLL 1
0,
2,
#BPMCHANGE 125
#SCROLL 1.34
34,
3,
,
,
,
#END

COURSE:Normal
LEVEL:4
BALLOON:6,6,13,6,7,15,13,13
SCOREINIT:570
SCOREDIFF:120
#START
3222,
2222,
#BPMCHANGE 177
#SCROLL 0.94
33,
#BPMCHANGE 151
#SCROLL 1.11
3434,
#BPMCHANGE 167
#SCROLL 1
3222,
2222,
3434,
3,
3222,
2222,
#BPMCHANGE 177
#SCROLL 0.94
33,
#BPMCHANGE 151
#SCROLL 1.11
343
#BPMCHANGE 125
#SCROLL 1.34
4,
#BPMCHANGE 167
#SCROLL 1
11,
22,
11,//15
#GOGOSTART
3334,
1212,
1212,
3334,
3334,
1212,
1212,
3334,
3334,
7008,
7008,
7,
0008,
3344,
3344,
7000
#BPMCHANGE 151
#SCROLL 1.11
#GOGOEND
0800,//31
#BPMCHANGE 136
#SCROLL 1.23
70000800,
#BPMCHANGE 151
#SCROLL 1.11
3404,
0440,
#BPMCHANGE 172
#SCROLL 0.97
6,
000000000000000000000000000000000008000000000000,
#BPMCHANGE 151
#SCROLL 1.11
3404,
0440,
#BPMCHANGE 172
#SCROLL 0.97
6,
000000000000000000000000000000000008000000000000,//40
#BPMCHANGE 162
#SCROLL 1.03
#GOGOSTART
1022,
1021,
1022,
1021,//44
#BPMCHANGE 151
#SCROLL 1.11
#GOGOEND
7,
0008,
#BPMCHANGE 167
#SCROLL 1
3222,
3222,
3,
0003,
3222,
2222,
#BPMCHANGE 177
#SCROLL 0.94
33,
#BPMCHANGE 151
#SCROLL 1.11
3434,
#BPMCHANGE 167
#SCROLL 1
3222,
2222,
3434,
3,
3222,
2222,
33,
#BPMCHANGE 151
#SCROLL 1.11
343
#BPMCHANGE 125
#SCROLL 1.34
4,
#BPMCHANGE 167
#SCROLL 1
11,
22,
11,
22,
1212,
1212,
3033,
#BPMCHANGE 157
#SCROLL 1.06
44
#BPMCHANGE 141
#SCROLL 1.18
33,
#BPMCHANGE 157
#SCROLL 1.06
37,
#BPMCHANGE 167
#SCROLL 1
00000008,
0700,
,
8,
2111,
2111,
2121,
#BPMCHANGE 141
#SCROLL 1.18
4
#BPMCHANGE 167
#SCROLL 1
0,
3,
#BPMCHANGE 125
#SCROLL 1.34
34,
3,
,
,
,
#END

COURSE:Easy
LEVEL:3
BALLOON:4,4,10,4,6,12,10,10
SCOREINIT:540
SCOREDIFF:120
#START
32,
22,
#BPMCHANGE 177
#SCROLL 0.94
33,
#BPMCHANGE 151
#SCROLL 1.11
3330,
#BPMCHANGE 167
#SCROLL 1
32,
22,
33,
3,
32,
2220,
#BPMCHANGE 177
#SCROLL 0.94
33,
#BPMCHANGE 151
#SCROLL 1.11
333
#BPMCHANGE 125
#SCROLL 1.34
0,
#BPMCHANGE 167
#SCROLL 1
1,
1,
1,//15
#GOGOSTART
3330,
1110,
1110,
33,
33,
2220,
2220,
33,
33,
70000800,
70000800,
7,
0008,
34,
34,
7000
#BPMCHANGE 151
#SCROLL 1.11
#GOGOEND
0800,//31
#BPMCHANGE 136
#SCROLL 1.23
70000800,
#BPMCHANGE 151
#SCROLL 1.11
3,
3,
#BPMCHANGE 172
#SCROLL 0.97
6,
000000000000000000000000000008000000000000000000,
#BPMCHANGE 151
#SCROLL 1.11
3,
3,
#BPMCHANGE 172
#SCROLL 0.97
6,
000000000000000000000000000008000000000000000000,//40
#BPMCHANGE 162
#SCROLL 1.03
#GOGOSTART
12,
12,
1021,
1021,//44
#BPMCHANGE 151
#SCROLL 1.11
#GOGOEND
7,
0008,
#BPMCHANGE 167
#SCROLL 1
3,
3,
3,
0003,
32,
22,
#BPMCHANGE 177
#SCROLL 0.94
33,
#BPMCHANGE 151
#SCROLL 1.11
3330,
#BPMCHANGE 167
#SCROLL 1
32,
2220,
33,
3,
3220,
2220,
33,
#BPMCHANGE 151
#SCROLL 1.11
333
#BPMCHANGE 125
#SCROLL 1.34
0,
#BPMCHANGE 167
#SCROLL 1
1,
1,
12,
12,
1110,
1110,
34,
#BPMCHANGE 157
#SCROLL 1.06
3
#BPMCHANGE 141
#SCROLL 1.18
4,
#BPMCHANGE 157
#SCROLL 1.06
37,
#BPMCHANGE 167
#SCROLL 1
,
8700,
,
8,
11,
1110,
1110,
#BPMCHANGE 141
#SCROLL 1.18
3
#BPMCHANGE 167
#SCROLL 1
0,
3,
#BPMCHANGE 125
#SCROLL 1.34
34,
3,
,
,
,
#END
