//TJADB Project
TITLE:Sekai wa Anata ni Waraikakete Iru
TITLEJA:世界はあなたに笑いかけている
SUBTITLE:--Little Glee Monster/Coca-Cola
BPM:121
WAVE:Sekai wa Anata ni Waraikakete Iru.ogg
OFFSET:-2.093
DEMOSTART:17.185

COURSE:Oni
LEVEL:8
SCOREINIT:850
SCOREDIFF:243
#START
0020200220020020,
0020200220020020,
0020200220020020,
0020200220020020,
1020200220022020,
1020200220022020,
1020200220022020,
3030303030222101,
#GOGOSTART
0022100200102101,
0022100200102101,
0022100200102021,
0010210100222101,
0022100200102101,
0022100200003003,
0020300300002221,
02223030,
3,
#GOGOEND
1000201010002002,
1000201010002002,
1000201010002002,
1,
1000201010002002,
1000201010002002,
1000201010002002,
10211020,
1000200010102012,
0010200010102012,
0010200010102012,
0020102010212000,
1000200010102012,
0010200010102012,
0220202120202021,
2020202120202021,
2020202120202021,
500000000000000000000000000000000008000000000300,
0030303030222202,
0000400400202202,
0000400400202202,
0000400400202022,
0020220200222101,
#GOGOSTART
0022100200102101,
0022100200001021,
0020102100201021,
02223030,
600000000000000000000008000000000000200000200200,
0020101100102022,
0020101101002022,
0010110100222101,
0022100200102101,
0022100200003003,
0020300300002221,
0020202030003006,
000000000000000000000000000000000000000008000000,
#GOGOEND
#END

COURSE:Hard
LEVEL:5
BALLOON:8
SCOREINIT:1150
SCOREDIFF:350
#START
,
,
,
,
1202,
0202,
0202,
33333000,//8
#GOGOSTART
0000300300000000,
0000300300000000,
0000100100001001,
0000100100000000,
0000300300000000,
0000300300003003,
0000300300000022,
02223030,
3,//17
#GOGOEND
1202,
0202,
0202,
,
1202,
0202,
0202,
0200,
10201121,
00201121,
00201121,
02021020,
10201121,
0212,
0212,
1212,
1212,
500000000000000000000000000000000008000000000300,
03333000,
0000200200000000,
0000200200000000,
0000200200002002,
0000200200000000,//40
#GOGOSTART
0000300300000000,
0000300300003003,
0000300300000022,
02223030,
3000000000002022,
0020000000002022,
0020000000002022,
07000080,
0000300300000000,
0000300300003003,
0000300300000022,
0020202030003006,
000000000000000000000000000000000000008000000000,//53
#GOGOEND
,
#END

COURSE:Normal
LEVEL:4
BALLOON:12,6
#START
,
,
,
,
1202,
0202,
0202,
1,//8
#GOGOSTART
0000300300000000,
0000300300000000,
0101,
0100,
0000300300000000,
0000300300003000,
0000300000000003,
0033,
3,//17
#GOGOEND
1002,
0002,
0002,
,
1202,
0202,
0202,
0200,
1011,
0012,
1011,
0012,
1011,
0012,
1012,
1012,
1012,
7,
8,
0000200200000000,
0000200200000000,
0202,
0200,//40
#GOGOSTART
0000300300000000,
0000300300003000,
0000300000000003,
0033,
3002,
0002,
0002,
07000080,
0000300300000000,
0000300300003000,
0000300000000003,
0000000030003006,
000000000000000000000000000000000000008000000000,//53
#GOGOEND
,
#END

COURSE:Easy
LEVEL:3
BALLOON:10,5
#START
,
,
,
,
1002,
0002,
0002,
1,//8
#GOGOSTART
0300,
0300,
0101,
0100,
0300,
0303,
0000300000000003,
0033,
3,//17
#GOGOEND
1002,
0002,
0002,
,
1002,
0002,
0002,
,
11,
02,
11,
02,
11,
02,
11,
11,
11,
7,
8,
0200,
0200,
0202,
0200,//40
#GOGOSTART
0300,
0303,
0000300000000003,
0033,
3002,
0002,
0002,
07000080,
0300,
0303,
0000300000000003,
0000000030003006,
000000000000000000000000000000000000008000000000,//53
#GOGOEND
,
#END
