//TJADB Project
TITLE:FREEDOM DiVE↓
TITLEJA:FREEDOM DiVE↓
SUBTITLE:--xi/MAXBEAT
SUBTITLEJA:xi
BPM:222.22
WAVE:FREEDOM DiVE.ogg
OFFSET:-1.396
DEMOSTART:64.023 //shinuchi:
3040/2490/1730/960

COURSE:Oni
LEVEL:10
BALLOON:11,11
SCOREINIT:340,970
SCOREDIFF:83
#START
1021002000200020,
02020202,
1021002000200020,
0020002011221020,
1022002000200020,
0022002000200020,
1021002010210020,
1011201120221122, //8
1212,
10201022,
10201022,
1000200010020020,
10201021,
0011202010221120,
10201122,
1011201120221122, //16
1212,
10201022,
10201022,
1000200010020020,
10201021,
0011202010221120,
1222,
1222, //24
1022022011011020,
1022022011011020,
1022022011011020,
1022022010202020,
1022022011022020,
11221122,
1110202011102020,
7008, //32
11221122,
100010001000200000200000100100000100100000200000,
11221122,
1110202011102020,
1022022011111020,
1010222210020020,
1022022011011020,
11221122,
1011101110102011,
1011101110112222, //42
1020112010201120,
1022102010201210,
1020112010201120,
1022102010201210,
1020102010221020,
1020102010221020,
1022102010221020,
1011201010112010, //50
1020112010201120,
1022102010201210,
1020112010201120,
1022102010201210,
1020102010221020,
1020102010221020,
12221222,
1022102211221120, //58
#GOGOSTART
1022022011111020,
1022022011211020,
1022022011111020,
1022022010102020,
1022022011022020,
1110202011102020,
1110222011102220,
7008, //66
11221122,
100010001000200000200000100000000200000000200000,
11221122,
1110202011102020,
1022022011111020,
1010222210020020,
1022022011011020,
11221122, //74
#GOGOEND
5,
000000000000000000000000000000000000000000000008,
0,
0,
12,
22,
12, //81
1222,
1222,
1222,
10202022,
1020202210202022,
1020202210202022,
1022202210222022,
1022102210221010,
1, //90
#GOGOSTART
1022022011221020,
1022022011211020,
1022022011221020,
1022022010102020,
1022022011022020,
1110202011102020,
1110222011102220,
500000000000000000000000000000000008000000000000, //98
11221122,
100010001000200000200000100000000200000000200000,
11221122,
1110202011102020,
1022022011111020,
1010222210020020,
1022022011011020,
11221122, //106
1022022011221020,
1022022011211020,
1022022011221020,
1022022010102020,
1022022011022020,
1110202011102020,
1110222011102220,
500000000000000000000000000000000008000000000000, //114
11221122,
100010001000200000200000100000000200000000200000,
11221122,
1110202011102020,
1022022011111020,
1010222210020020,
#GOGOEND
1022022011011020,
11221122, //122
#GOGOSTART
1011201020112010,
2011201020112010,
2011201120112212,
1011201120112212,
#GOGOEND
5,
000000000000000000000000000000000000000000000008,
0,
0,
0,
#BARLINEOFF
0,
0,
0, //134
#END

COURSE:Hard
LEVEL:7
BALLOON:75,21,5,6,7,8,6,7,8,9,20
SCOREINIT:490,2160
SCOREDIFF:110
#START
3,
0,
3,
0,
3,
0,
34,
3334, //8
30201120,
10201120,
10201120,
1000200020020020,
10201122,
01201120,
3232,
3334, //16
30201120,
10201120,
10201120,
1000200020020020,
10201122,
01201120,
3344,
3344, //24
7,
0,
0,
0,
0,
0,
0,
8, //32
3222,
2222,
3222,
2222,
32,
33,
3033,
3344,
3333,
4444, //42
1121,
2212,
1121,
2212,
1122,
1221,
1122,
1434, //50
3121,
2212,
1121,
2212,
1122,
1221,
11112222,
11112222, //58
#GOGOSTART
10102222,
10102212,
10102222,
10102212,
10102022,
11221122,
11112222,
500000000000000000000000000000000008000000000000, //66
10102222,
10102212,
10102222,
10102212,
500000000008000000000000200000000000000000000000,
500000000008000000000000200000000000000000000000,
500000000008000000000000200000000000000000000000,
3333, //74
#GOGOEND
7,
0,
8,
0,
22,
22,
22, //81
7008,
7008,
7008,
7008,
7008,
7008,
7008,
7008,
600000000000000000000000000000000008000000000000, //90
#GOGOSTART
10102222,
10102212,
10102222,
10102212,
10102022,
11221122,
11112222,
500000000000000000000000000000000008000000000000, //98
10102222,
10201122,
10102222,
10201122,
500000000008000000000000200000000000000000000000,
500000000008000000000000200000000000000000000000,
500000000008000000000000200000000000000000000000,
3333, //106
10102221,
10102212,
10102221,
10102212,
10102022,
11221122,
11112222,
500000000000000000000000000000000008000000000000, //114
10102222,
10201122,
10102222,
10201122,
500000000008000000000000200000000000000000000000,
500000000008000000000000200000000000000000000000,
#GOGOEND
11,
3344, //122
#GOGOSTART
1111,
2222,
11112222,
11221122,
#GOGOEND
7,
0,
8,
0,
0,
#BARLINEOFF
0,
0,
0, //134
#END

COURSE:Normal
LEVEL:6
BALLOON:45,10,12,19,19,12
SCOREINIT:530,3110
SCOREDIFF:128
#START
3,
0,
3,
0,
3,
0,
34,
3333, //8
3202,
0202,
1202,
0210,
1202,
0212,
1202,
3333, //16
3202,
0202,
1202,
0210,
1202,
0212,
3333,
4444, //24
7,
0,
0,
0,
0,
0,
0,
8, //32
32,
22,
32,
22,
32,
33,
3033,
3344,
500000000000000000000000000000000008000000000000,
600000000000000000000000000000000008000000000000, //42
1111,
2222,
1111,
2222,
1122,
1122,
1112,
1112, //50
1111,
2222,
1111,
2222,
1122,
1122,
7,
08, //58
#GOGOSTART
1122,
1122,
1122,
10102222,
1122,
10102022,
10102022,
500000000000000000000000000000000008000000000000, //66
1122,
1212,
1122,
1212,
500000000008000000000000200000000000000000000000,
500000000008000000000000200000000000000000000000,
500000000008000000000000200000000000000000000000,
3333, //74
#GOGOEND
7,
0,
8,
0,
22,
22,
22, //81
7,
0,
0,
8,
7,
0,
0,
8,
600000000000000000000000000000000008000000000000, //90
#GOGOSTART
1122,
1122,
1122,
10102222,
10102022,
10102022,
10102022,
500000000000000000000000000000000008000000000000, //98
1122,
1212,
1122,
1212,
500000000008000000000000200000000000000000000000,
500000000008000000000000200000000000000000000000,
500000000008000000000000200000000000000000000000,
500000000000000000000000000000000008000000000000, //106
10102022,
10102022,
10102022,
10102222,
10102012,
10102012,
10102012,
500000000000000000000000000000000008000000000000, //114
1122,
1212,
1122,
1212,
500000000008000000000000200000000000000000000000,
500000000008000000000000200000000000000000000000,
#GOGOEND
11,
600000000000000000000000000000000008000000000000, //122
#GOGOSTART
3333,
4444,
3344,
3344,
#GOGOEND
7,
0,
8,
0,
0,
#BARLINEOFF
0,
0,
0, //134
#END

COURSE:Easy
LEVEL:4
BALLOON:37,8,10,16,16,10
SCOREINIT:350,3700
SCOREDIFF:75
#START
3,
0,
3,
0,
3,
0,
34,
34, //8
3,
11,
1,
11,
1,
11,
1,
11, //16
11,
1110,
11,
1110,
11,
1110,
3333,
4444, //24
7,
0,
0,
0,
0,
0,
0,
8, //32
3,
0,
3,
0,
3,
33,
3033,
3333,
500000000000000000000000000000000008000000000000,
600000000000000000000000000000000008000000000000, //42
1110,
1110,
1110,
1110,
2220,
2220,
2220,
2220, //50
1110,
1110,
1110,
1110,
2220,
2220,
7,
08, //58
#GOGOSTART
1111,
1110,
1111,
1110,
2222,
2220,
2222,
500000000000000000000000000000000008000000000000, //66
1111,
2220,
1111,
2220,
1110,
1110,
1111,
3333, //74
#GOGOEND
7,
0,
8,
0,
11,
11,
11, //81
7,
0,
0,
8,
7,
0,
0,
8,
600000000000000000000000000000000008000000000000, //90
#GOGOSTART
1111,
1110,
1111,
1110,
2222,
2220,
2222,
500000000000000000000000000000000008000000000000, //98
1111,
2220,
1111,
2220,
1110,
1110,
1111,
500000000000000000000000000000000008000000000000, //106
1111,
1110,
1111,
1110,
2222,
2220,
2222,
500000000000000000000000000000000008000000000000, //114
1111,
2220,
1111,
2220,
1110,
1110,
#GOGOEND
11,
600000000000000000000000000000000008000000000000, //122
#GOGOSTART
1111,
2222,
3333,
4444,
#GOGOEND
7,
0,
8,
0,
0,
#BARLINEOFF
0,
0,
0, //134
#END
