//TJADB Project
TITLE:Colorful Voice
TITLEJA:カラフルボイス
SUBTITLE:--cosMo@bousouP feat. Hatsune Miku & GUMI
SUBTITLEJA:cosMo@暴走P feat.初音ミク・GUMI
BPM:240
WAVE:Colorful Voice.ogg
OFFSET:-2.169
DEMOSTART:44.158

COURSE:Edit
LEVEL:10
BALLOON:22,4
SCOREINIT:290
SCOREDIFF:70
#START
#GOGOSTART
10210120,
1110201020002000,
10210120,
1020102210222020,
10210120,
1110201020002000,
10210120,
1022102010221120,
100100100000200000100100100000200000500000000008,
0010201120102010,
1110201110202220,
1020102211102000,
100100100000200000100100100000200000500000000008,
0010201120102220,
33044033,
0040400022221111,
#GOGOEND
7,
0008,
11221121,
12211122,
11221121,
12211122,
112112122122,
111211111222,
112112122122,
111211222222,
11221121,
12211122,
11221121,
2010201022201110,
112112122122,
111222111222,
112112122122,
111211222222,
10201022,
10201021,
10201022,
1010200011102010,
2020102020102220,
1022201022221020,
1011111110201020,
3000000022221111,
#GOGOSTART
1000201110102011,
1010202210102010,
1000201110201022,
1020102210112222,
1000201110102011,
1010202210102220,
3022203022203022,
2010201022222222,
1000201110102011,
1010202210102010,
1000201110201020,
1022201110221122,
1000201110102011,
1010202210102220,
10212121,
2222222211112211,
1010201011112030,
0010201011112030,
0010201011112022,
1002002010221110,
3000201011102010,
0010201011102000,
1011204000112210,
4004004000221111,
1020112210102030,
000000100000200000500000000008000000100000200000,
1020112210102030,
000000100000200000500000000008000000100000000000,
2222102010102030,
0010201010201120,
1011221011221011,
2210112210112222,
2211221111111111,
1111222211221122,
#GOGOEND
1,
,
,
,
10002022,
12,
1122,
10102222,
10201122,
10221120,
1444,
1000202011102000,
3000202210201020,
1020202022222222,
1,
,
3,
0000000000112030,
#GOGOSTART
0020102210201022,
1020102210112210,
0010400010102011,
1010202210102220,
3022203022203022,
2010201022222222,
#GOGOEND
1,
0000000000112000,
#GOGOSTART
1000201110201020,
1022201110221122,
1000201110102011,
1010202210102220,
1000201020112010,
#SCROLL 1.06
500000000000000000000000000000000000000008000000,
#SCROLL 1.13
1020112010201120,
1020112010201120,
1020112010201120,
1020112010201122,
1020112010201120,
1020112010201120,
1122102211201122,
1022107000008000, //here
#MEASURE 9/32
10101010
#SCROLL 1.14
1,
#MEASURE 1/4
#SCROLL 1.17
0
#SCROLL 1.14
101010
#SCROLL 1.15
1,
#SCROLL 1.24
0
#SCROLL 1.15
101010
#SCROLL 1.16
1,
#SCROLL 1.3
0
#SCROLL 1.16
1010
#SCROLL 1.17
101,
#SCROLL 1.36
0
#SCROLL 1.17
10
#SCROLL 1.18
1010
#SCROLL 1.19
1,
#SCROLL 1.42
0
#SCROLL 1.19
10
#SCROLL 1.2
1010
#SCROLL 1.21
1,
#SCROLL 1.48
0
#SCROLL 1.21
10
#SCROLL 1.22
1010
#SCROLL 1.23
1,
#SCROLL 1.54
0
#SCROLL 1.23
10
#SCROLL 1.24
1010
#SCROLL 1.25
1,
#SCROLL 1.6
0
#SCROLL 1.25
10
#SCROLL 1.26
1010
#SCROLL 1.27
1,
#SCROLL 1.66
0
#SCROLL 1.27
10
#SCROLL 1.28
1010
#SCROLL 1.29
1,
#SCROLL 1.72
0
#SCROLL 1.29
10
#SCROLL 1.30
1010
#SCROLL 1.31
1,
#SCROLL 1.78
0
#SCROLL 1.31
10
#SCROLL 1.32
1010
#SCROLL 1.33
1,
#SCROLL 1.84
0
#SCROLL 1.33
10
#SCROLL 1.34
1010
#SCROLL 1.35
1,
#SCROLL 1.9
0
#SCROLL 1.35
10
#SCROLL 1.36
1010
#SCROLL 1.37
1,
#SCROLL 1.96
0
#SCROLL 1.37
10
#SCROLL 1.38
1010
#SCROLL 1.39
1,
#SCROLL 2.02
0
#SCROLL 1.39
10
#SCROLL 1.4
1010
#SCROLL 1.41
1,
#SCROLL 2.08
0
#SCROLL 1.41
10
#SCROLL 1.42
1010
#SCROLL 1.43
1,
#SCROLL 2.14
0
#SCROLL 1.43
10
#SCROLL 1.44
1010
#SCROLL 1.45
1,
#SCROLL 2.2
0
#SCROLL 1.46
10
#SCROLL 1.47
10
#SCROLL 1.48
10
#SCROLL 1.49
1,
#SCROLL 2.26
0
#SCROLL 1.5
10
#SCROLL 1.51
10
#SCROLL 1.52
10
#SCROLL 1.53
1,
#SCROLL 2.32
0
#SCROLL 1.54
10
#SCROLL 1.55
10
#SCROLL 1.56
10
#SCROLL 1.57
1,
#SCROLL 2.38
0
#SCROLL 1.58
10
#SCROLL 1.59
10
#SCROLL 1.6
10
#SCROLL 1.61
1,
#SCROLL 2.44
0
#SCROLL 1.62
10
#SCROLL 1.63
10
#SCROLL 1.64
10
#SCROLL 1.65
1,
#SCROLL 2.5
0
#SCROLL 1.66
10
#SCROLL 1.67
10
#SCROLL 1.68
10
#SCROLL 1.69
1,
#SCROLL 2.56
0
#SCROLL 1.7
10
#SCROLL 1.71
10
#SCROLL 1.72
10
#SCROLL 1.73
1,
#SCROLL 2.62
0
#SCROLL 1.74
10
#SCROLL 1.75
10
#SCROLL 1.76
10
#SCROLL 1.77
1,
#SCROLL 2.68
0
#SCROLL 1.78
10
#SCROLL 1.79
10
#SCROLL 1.80
10
#SCROLL 1.81
1,
#SCROLL 2.74
0
#SCROLL 1.82
10
#SCROLL 1.83
10
#SCROLL 1.84
10
#SCROLL 1.85
1,
#SCROLL 2.8
0
#SCROLL 1.86
10
#SCROLL 1.87
10
#SCROLL 1.88
10
#SCROLL 1.89
1,
#SCROLL 2.86
0
#SCROLL 1.9
10
#SCROLL 1.91
10
#SCROLL 1.92
10
#SCROLL 1.93
1,
#SCROLL 2.92
0
#SCROLL 1.94
10
#SCROLL 1.95
10
#SCROLL 1.96
10
#SCROLL 1.97
1,
#MEASURE 7/32
0
#SCROLL 1.98
10
#SCROLL 1.99
10
#SCROLL 2
10,
#MEASURE 4/4
5,
#BARLINEOFF
000000000000000000000000000000000000000008000000,
3,
#BARLINEON
#MEASURE 1/8
#SCROLL 1.67
,
#SCROLL 1.5
,
#SCROLL 1.33
,
#SCROLL 1.17
,
#SCROLL 1
,
#SCROLL 0.88
,
#SCROLL 0.79
,
#SCROLL 0.71
,
#GOGOEND
#SCROLL 0.67
#MEASURE 4/4
10112012,
01112012,
10112012,
01112012,
10112012,
01112012,
10112012,
01112022,
#END

COURSE:Oni
LEVEL:9
BALLOON:20,3
SCOREINIT:340
SCOREDIFF:83
#START
#GOGOSTART
10210120,
11202020,
10210120,
1010200020222000,
10210120,
11202020,
10210120,
1010201020222020,
10210120,
11202020,
10210120,
1010200020222000,
10210120,
11202020,
33044033,
0040400022201110,
#GOGOEND
7,
0008,
10201120,
11210120,
10201120,
11210120,
111101101102,
101200102200,
111101101102,
111200111111,
11201120,
11210120,
11201121,
2010201020102220,
111101101102,
101200102200,
111101101102,
111200111111,
10201022,
10201021,
10201022,
11201120,
33033033,
03301121,
2011102011102000,
3000000022201110,
#GOGOSTART
1000201110102010,
0010201110102010,
1000201120102010,
2010201110102220,
1000201110102010,
1010201110102000,
32232232,
2010202010222220,
1000201110102010,
0010201110102010,
1000201120102010,
2010201110102220,
1000201110102010,
1010201110102010,
10212121,
1010202011102220,
3000201011102030,
0010201011102030,
0010201011102000,
1002002010222010,
3000201011102010,
0010201011102000,
3011104000102210,
4004004000201110,
1010200011102030,
01211222,
1010200011202030,
0010201010222020,
1020102011102030,
0010201010222020,
1110201110201110,
2011102011104000,
1110111011101110,
5,
#GOGOEND
8,
,
,
,
10002022,
12,
1122,
10102222,
10201120,
10221020,
1444,
10221120,
30221212,
12225008,
1,
,
3,
0000000000112030,
#GOGOSTART
02121212,
1020102011102010,
01401121,
1010201110102000,
32232232,
2010202010222220,
#GOGOEND
3,
0000000000112000,
#GOGOSTART
10212121,
2010201110102220,
1000201110102010,
1010201110102010,
1000201020112010,
50000008,
1000201120102010,
2010201120102010,
2010201120102010,
2010201120102220,
1000201120102010,
2010201120102000,
32232232,
23270080,
1020112010201120,
1020112010201020,
1020112010201120,
1020112010201020,
1020112010201120,
1020112010201020,
1020111010201110,
1020111011111111,
5,
00000008,
3,
,
#GOGOEND
10112012,
01112012,
10112012,
01112012,
10112012,
01112012,
10112012,
01112022,
#END

COURSE:Hard
LEVEL:7
BALLOON:16,37,3
SCOREINIT:380
SCOREDIFF:90
#START
#GOGOSTART
10110110,
11202020,
10110110,
11202210,
10110110,
11202020,
10110110,
11202211,
10110110,
11202020,
10110110,
11202210,
10110110,
11202020,
33044033,
04403040,
#GOGOEND
7,
0008,
10201120,
11210120,
10201120,
11210120,
101100101100,
1212,
101100101100,
100200101100,
10201120,
11210120,
10201120,
11221120,
101100101100,
1212,
101100101100,
100200101100,
1022,
1021,
1022,
10201120,
33033033,
03301120,
11221120,
32,
#GOGOSTART
10201121,
01201120,
10201121,
01201122,
10201121,
01201120,
33034044,
06000080,
10201121,
01201120,
10201121,
01201122,
10201121,
01201120,
10201120,
11221222,
7,
,
,
0008,
10201121,
01201120,
11220110,
4004004000101000,
10201121,
01250080,
10201121,
02250080,
20221101,
01250080,
33033033,
03303040,
30111111,
5,
#GOGOEND
8,
,
,
,
1022,
12,
1122,
10102022,
10201120,
10221020,
1444,
10221120,
5,
00000008,
1,
,
3,
00000123,
#GOGOSTART
02121212,
12121020,
10201121,
01201120,
33034044,
06000080,
#GOGOEND
3,
00000120,
#GOGOSTART
10212121,
21211020,
10201121,
01201120,
10212121,
50000008,
11221122,
11221120,
11221122,
11221120,
11221122,
11221120,
12211221,
12270080,
11111111,
11111111,
11111111,
22112211,
11111111,
22112211,
10221120,
12211221,
5,
00000008,
3,
,
#GOGOEND
12,
2021,
12,
2021,
12,
2021,
12,
2022,
,
#END

COURSE:Normal
LEVEL:7
BALLOON:18,25,11,25
SCOREINIT:470
SCOREDIFF:116
#START
#GOGOSTART
10010010,
0222,
10010010,
00201110,
10010010,
0222,
10010010,
00201110,
10010010,
0222,
10010010,
00201110,
10010010,
0222,
33033033,
03303030,
#GOGOEND
,
,
1120,
1120,
1120,
1122,
1111,
1212,
1111,
1220,
1120,
1120,
1120,
1122,
1111,
1212,
1111,
1220,
12,
12,
12,
1120,
9,
,
09,
8,
#GOGOSTART
10102011,
1120,
10102011,
1120,
10102011,
1120,
33033033,
06000080,
10102011,
1120,
10102011,
1120,
10102011,
1120,
1120,
11102020,
7,
,
,
0008,
1120,
11102000,
30030000,
4004004000000000,
10201115,
0008,
10201115,
0008,
20201105,
0008,
33033033,
03303030,
6,
,
#GOGOEND
8,
,
,
,
1,
1,
11,
22,
1212,
1212,
1444,
10201110,
5,
,
8,
,
3,
,
#GOGOSTART
10102011,
1120,
10102011,
1120,
33033033,
06000080,
#GOGOEND
3,
,
#GOGOSTART
10102011,
1120,
10102011,
1120,
7,
8,
11102011,
1120,
11102011,
1120,
11102011,
1120,
33033033,
06000080,
11101110,
11101010,
11101110,
11101010,
11101110,
11101010,
1111,
11101110,
7,
,
,
0008,
#GOGOEND
12,
22,
12,
22,
12,
22,
12,
22,
,
#END

COURSE:Easy
LEVEL:5
BALLOON:15,19,9,19
SCOREINIT:450
SCOREDIFF:112
#START
#GOGOSTART
10010010,
,
10010010,
,
10010010,
,
20020020,
,
10010010,
,
10010010,
,
10010010,
,
30030030,
03003000,
#GOGOEND
,
,
11,
11,
11,
11,
1110,
1110,
1110,
50000800,
11,
11,
11,
11,
1110,
1110,
1110,
50000800,
11,
22,
11,
22,
9,
,
09,
8,
#GOGOSTART
11,
11,
1110,
1110,
22,
22,
30030030,
03000000,
11,
11,
1110,
1110,
22,
22,
11,
1110,
7,
,
,
0008,
11,
22,
30030000,
40040000,
10001005,
00000800,
10001005,
00000800,
20002005,
00000800,
30030030,
03003000,
6,
,
#GOGOEND
8,
,
,
,
1,
1,
1,
1,
11,
11,
1111,
,
5,
,
8,
,
3,
,
#GOGOSTART
1110,
1110,
22,
22,
30030030,
03000000,
#GOGOEND
3,
,
#GOGOSTART
1110,
1110,
22,
22,
7,
8,
1110,
1110,
1110,
1110,
22,
22,
30030030,
03000000,
1111,
1110,
1111,
1110,
1111,
1110,
1111,
1111,
7,
,
,
0008,
#GOGOEND
1,
,
2,
,
1,
,
2,
,
,
#END
