//TJADB Project
TITLE:An American in Paris
TITLEJA:パリのアメリカ人
SUBTITLE:--George Gershwin
SUBTITLEJA:ガーシュウィン
BPM:112
WAVE:An American in Paris.ogg
OFFSET:-2.472
DEMOSTART:2.415

COURSE:Oni
LEVEL:8
BALLOON:30,60
SCOREINIT:610
SCOREDIFF:150
#START
22102210,
2020102010112000,
22102212,
2222202010001022,
1000102210001000,
#MEASURE 2/4
3434,
#MEASURE 4/4
22102210,
2020102010112000,
22102212,
2222202010001000,
2222202000200020,
1111101022222020,
3000302222102221,
1022111021111000,
#BPMCHANGE 111.69
1122,
#BPMCHANGE 112.89
22202020,
#BPMCHANGE 111.35
2020202210101011,
#BPMCHANGE 111.57
2020202210101011,
#BPMCHANGE 112.01
1020102010222020,
#BPMCHANGE 112.34
1020102010222020,
#GOGOSTART
#BPMCHANGE 112.16
1001102010012020,
#BPMCHANGE 112.13
1001102010012020,
2211221122112211,
#BPMCHANGE 111.87
12121120,
#BPMCHANGE 111.54
1022112210102000,
#MEASURE 2/4
#BPMCHANGE 114.45
1212,
#GOGOEND
#MEASURE 4/4
#BPMCHANGE 111.6
7,
#BPMCHANGE 112
0008,
1122102010201120,
2211201020102210,
#BPMCHANGE 111.54
1122102010201120,
#BPMCHANGE 112
1011112020222210,
#MEASURE 5/4
33333,
#MEASURE 4/4
#GOGOSTART
1120112022102210,
1120112021102110,
1120112022102210,
#BPMCHANGE 111.17
1122112211221122,
#BPMCHANGE 112.34
1212121021212120,
#BPMCHANGE 111.68
1212121021212120,
#GOGOEND
#BPMCHANGE 111.41
22102210,
#BPMCHANGE 112.58
2020102010112000,
#BPMCHANGE 112
1011211020101011,
2210201010122210,
#BPMCHANGE 112.71
2010101222202010,
#GOGOSTART
#BPMCHANGE 112
1112201111201111,
1011122011112011,
1110111220111120,
#MEASURE 2/4
#BPMCHANGE 111.46
11111010,
#MEASURE 6/4
#BPMCHANGE 112
1122112211221222
#GOGOEND
#BPMCHANGE 62.72
00000000,
#MEASURE 4/4
#BPMCHANGE 63
3333,
#MEASURE 5/8
#BPMCHANGE 63.15
60008,
#MEASURE 4/4
#BPMCHANGE 85.71
1212,
#BPMCHANGE 86.08
2121,
7,
#MEASURE 11/8
00000000080,
#MEASURE 4/4
#SCROLL 6
3,
#END

COURSE:Hard
LEVEL:6
BALLOON:28,13,48
SCOREINIT:720
SCOREDIFF:190
#START
11102220,
1010102010111000,
11102222,
1111100030000000,
1212,
#MEASURE 2/4
3434,
#MEASURE 4/4
11102220,
1010102010111000,//8
11102222,
1111100030000000,
2222202000000000,
2222202000000000,
3000302220302220,
3022203022203000,
1122,
22200000,//16
2020201110101000,
2020201110101000,
11112020,
22221010,//20
#GOGOSTART
1001101010011010,
1001101010011010,
6008,
12121120,
12121120,
#MEASURE 2/4
1212,//26
#MEASURE 4/4
#GOGOEND
7,
0008,
1110100010001010,
2220200020002020,
1110100010001010,
1011100020222000,
#MEASURE 5/4
11111,
#MEASURE 4/4
#GOGOSTART
34344343,
34344343,
34344343,
1110111011101110,
9009,
8,//39
#GOGOEND
1212,
1000100010111000,
1011102020001011,
1020200010111020,
2000101110202000,//44
#GOGOSTART
1110101000101000,
1011101010001010,
0010111010100010,
#MEASURE 2/4
1011,
#MEASURE 6/4
500000000000000000000008
#BPMCHANGE 63
#GOGOEND
000000000000,
#MEASURE 4/4
3333,
#MEASURE 5/8
60008,
#BPMCHANGE 86.4
#MEASURE 4/4
1212,
2121,
#BPMCHANGE 81.8
7,
#MEASURE 11/8
00000000080,
#MEASURE 4/4
#SCROLL 4
3,
#END

COURSE:Normal
LEVEL:4
BALLOON:21,13,36
SCOREINIT:800
SCOREDIFF:253
#START
1212,
10101110,
1212,
3330,
11,
#MEASURE 2/4
33,
#MEASURE 4/4
1212,
10101110,//8
1212,
3330,
20220000,
20220000,
30300300,
30030030,
11,
22200000,//16
22201110,
22201110,
11101000,
22202000,//20
#GOGOSTART
11,
3333,
6008,
10101120,
10101120,
#MEASURE 2/4
11,//26
#MEASURE 4/4
#GOGOEND
7,
0008,
11101010,
22202020,
11101011,
11,
#MEASURE 5/4
11111,
#MEASURE 4/4
#GOGOSTART
3344,
3344,
3344,
3333,
9009,
8,//39
#GOGOEND
11,
1110,
1121,
1211,
2112,//44
#GOGOSTART
11110030,
01111003,
00111100,
#MEASURE 2/4
3,
#MEASURE 6/4
500000000000000000000008
#BPMCHANGE 63
#GOGOEND
000000000000,
#MEASURE 4/4
3333,
#MEASURE 5/8
60008,
#BPMCHANGE 86.4
#MEASURE 4/4
1122,
1122,
#BPMCHANGE 81.8
7,
#MEASURE 11/8
00000000080,
#MEASURE 4/4
#SCROLL 4
3,
#END

COURSE:Easy
LEVEL:3
BALLOON:11,7,20
SCOREINIT:640
SCOREDIFF:250
#START
11,
1110,
11,
3330,
11,
#MEASURE 2/4
33,
#MEASURE 4/4
11,
1110,//8
11,
3330,
2200,
2200,
30300300,
30030030,
11,
2200,//16
2210,
2210,
1110,
2220,//20
#GOGOSTART
11,
3333,
60000800,
1110,
1110,
#MEASURE 2/4
11,//26
#MEASURE 4/4
#GOGOEND
7,
0008,
1110,
2220,
1110,
11,
#MEASURE 5/4
11111,
#MEASURE 4/4
#GOGOSTART
3340,
3340,
3340,
3333,
9009,
8,//39
#GOGOEND
11,
1110,
1101,
1011,
0110,//44
#GOGOSTART
3300,
03030000,
0330,
#MEASURE 2/4
,
#MEASURE 6/4
500000000000000000000008
#BPMCHANGE 63
#GOGOEND
000000000000,
#MEASURE 4/4
3333,
#MEASURE 5/8
60008,
#BPMCHANGE 86.4
#MEASURE 4/4
1111,
2222,
#BPMCHANGE 81.8
7,
#MEASURE 11/8
00000000080,
#MEASURE 4/4
#SCROLL 4
3,
#END
