//TJADB Project
TITLE:Dead or Die
TITLEJA:デッド・オア・ダイ
SUBTITLE:--REDALiCE
SUBTITLEJA:REDALiCE
BPM:240
WAVE:Dead or Die.ogg
OFFSET:-0.623
DEMOSTART:5.123

COURSE:Oni
LEVEL:10
BALLOON:24
SCOREINIT:300
SCOREDIFF:70
#START
#MEASURE 2/4
00112020,
#MEASURE 4/4
2220111022201110,
2210221022102210,
22022202,
1000100010004011,
11101010,
1000200020001110,
11101010,
1022111010102210,
11101010,
1000200020001110,
2011102020111020,
2011102010201111,
11101010,
1000200020001110,
11101010,
1022111010202020,
2011102000201020,
0011201020221020,
2220102022101020,
2220102022111000,
2002,
00002002,
00200200,
20020020,
02007000,
0008,
33040440,//28
#GOGOSTART
2210221022102210,//29
#GOGOEND
33040440,//30
#GOGOSTART
1120112011201120,//31
#GOGOEND
2222202022202220,
2222202022202220,
2222202022202220,
22222222,
33030330,
44040440,//37
#GOGOSTART
1110102010201022,
1110102010201022,
1110102000201122,
1110102010201022,
1110102010201022,
1110102010201022,
1110101011101010,
2210221022102211,
1110102010201022,
1110102010201022,
1110102000201022,
1110101000221111,
1010201011102020,
1000200011102050,
,
000000000000000000000008000000000000000000000000,//53
#GOGOEND
1210101012101010,//54
#GOGOSTART
1000200022221020,//55
#GOGOEND
1210101012121010,//56
#GOGOSTART
1000201022022010,//57
#GOGOEND
10220202,
1000201110101010,//59
#GOGOSTART
1011201011201122,
1011201011201122,//61
#GOGOEND
10121010,//62
#GOGOSTART
2010201022221010,//63
#GOGOEND
10121010,//64
#GOGOSTART
2010201022221000,//65
#GOGOEND
1020222020202220,
1122202012222020,
30030033,
3,
#BPMCHANGE 120
#MEASURE 8/4
#SCROLL 0.5
22022022001101002202202210110100,
22022022001101002202202210110100,
#BPMCHANGE 130
2202202200110100
#BPMCHANGE 140
2202202210110100,
#BPMCHANGE 150
2202202200110100
#BPMCHANGE 160
2202202210110100,
#BPMCHANGE 170
22022022
#BPMCHANGE 180
22022022
#BPMCHANGE 190
22022022
#BPMCHANGE 200
22022022,
#BPMCHANGE 210
22022022
#BPMCHANGE 220
22022022
#BPMCHANGE 230
22022022
#BPMCHANGE 240
22022022,
#MEASURE 4/4
#SCROLL 0.56
222222222222,
#SCROLL 0.75
2222222222222222,
#SCROLL 1
2121212121212121,
,
0022100020201122,
100010001000200020002000100000200200100000000000,
100010002000200020002000100000200200100000000000,
100020002000200020002000100000200200100000000000,
200020002000200020002000100200200200100200100200,
12020220,
12020220,
0000001110001010,
4000400000002211,//88
#GOGOSTART
1110102010001122,
1110102010002222,
1110102000201122,
1110102010002211,
1110102010001122,
1110102010002222,
1110101011101010,
2210221022102211,
1111111111112000,
1020201020201122,
1110102010002222,
1120201011221120,
1010201022221020,
10102025,
,
000000000000000000000008000000000000000000000000,//104
#GOGOEND
1111101011101010,
1110201120101011,
1110100010001010,
1111101110001000,
1111101011101010,
1110201120111010,
1111101111101111,
10011011,//112
#GOGOSTART
1111201212102111,//113
#GOGOEND
1000202210211020,//114
#GOGOSTART
1112201212102211,//115
#GOGOEND
1000202210211020,//116
#GOGOSTART
1121101212101010,
1212101222101010,
1222102212201010,
2222201122212220,
00330440,
34304400,//122
#GOGOEND
#END

COURSE:Hard
LEVEL:8
BALLOON:15,10,10,16,10
SCOREINIT:320
SCOREDIFF:80
#START
#MEASURE 2/4
,
#MEASURE 4/4
2220100022201000,
2220100022201000,
22022202,
1114,
11101010,
1220,
11101010,
1022200010222000,
11101010,
1220,
2011100020111000,
2011100020000000,
11101010,
1220,
11101010,
1022200010222000,
21020202,
0220,
2011100020111000,
2011100020000000,
2002,
00002002,
00200200,
20020020,
02007000,
0008,
33040440,//28
#GOGOSTART
2220100022201000,//29
#GOGOEND
33040440,//30
#GOGOSTART
1110200011102000,//31
#GOGOEND
2020202022202000,
2020202022202000,
2020202022202000,
22222222,
33030330,
44040440,//37
#GOGOSTART
11121210,
11121210,
11120210,
11121210,
11121210,
11121210,
1110100011101000,
2220100022201000,
11121210,
11121210,
11120210,
21120210,
11211120,
1000200011102050,
,
000000000000000000000008000000000000000000000000,//53
#GOGOEND
11112211,//54
#GOGOSTART
1000200022201000,//55
#GOGOEND
11112211,//56
#GOGOSTART
1212,//57
#GOGOEND
10220202,
10201202,//59
#GOGOSTART
1011101000002000,
1011101000002000,//61
#GOGOEND
10121010,//62
#GOGOSTART
2010201022201000,//63
#GOGOEND
10121010,//64
#GOGOSTART
2010201022201000,//65
#GOGOEND
11222201,
10201202,
30030033,
3,
#BPMCHANGE 120
#MEASURE 8/4
#SCROLL 0.5
22022000000000002202200000000000,
22022000000000002202200000000000,
#BPMCHANGE 130
2202200000000000
#BPMCHANGE 140
2202200000000000,
#BPMCHANGE 150
2202200000000000
#BPMCHANGE 160
2202200000000000,
#BPMCHANGE 170
22022000
#BPMCHANGE 180
22022000
#BPMCHANGE 190
22022000
#BPMCHANGE 200
22022000,
#BPMCHANGE 210
22022000
#BPMCHANGE 220
22022000
#BPMCHANGE 230
22022000
#BPMCHANGE 240
22022000,
#MEASURE 4/4
#SCROLL 0.66
7008,
#SCROLL 0.75
7008,
#SCROLL 1
7,
8,
,
111111100000,
222222200000,
111111100000,
222222200000,
12020220,
12020220,
,
4400,//88
#GOGOSTART
1110102010001000,
1110102010001000,
1110102000201000,
1110102010002000,
1110102010001000,
1110102010001000,
1110100011101000,
2220100022201000,
7008,
12212210,
1110102010001000,
1110102010001000,
1110100011101000,
10102025,
,
000000000000000000000008000000000000000000000000,//104
#GOGOEND
1110101010101010,
1220,
1110100010001010,
11111010,
1110101010101010,
1220,
1110100010001010,
10011011,//112
#GOGOSTART
1110201010102011,//113
#GOGOEND
1220,//114
#GOGOSTART
1110201010102011,//115
#GOGOEND
1220,//116
#GOGOSTART
1120101020101020,
1120101020101020,
1120101020101020,
2220202020222220,
00330440,
34304400,//122
#GOGOEND
,
,
#END

COURSE:Normal
LEVEL:7
BALLOON:10,6,6,8,10
#START
#MEASURE 2/4
,
#MEASURE 4/4
22102210,
22102210,
22022202,
1114,
11101010,
1220,
11101010,
1210,
11101010,
1220,
21002100,
21002000,
11101010,
1220,
11101010,
1210,
21020202,
0220,
21002100,
21002000,
2002,
00002002,
00200200,
20020020,
02007000,
0008,
33040440,//28
#GOGOSTART
2121,//29
#GOGOEND
33040440,//30
#GOGOSTART
1212,//31
#GOGOEND
20202220,
20202220,
20202220,
22202220,
33030330,
44040440,//37
#GOGOSTART
10121010,
10121010,
10120210,
10121010,
10121010,
10121010,
11101110,
1,
10121010,
10121010,
10120210,
20120000,
10201120,
10201125,
,
000000000000000000000008000000000000000000000000,//53
#GOGOEND
11101111,//54
#GOGOSTART
10202210,//55
#GOGOEND
11101111,//56
#GOGOSTART
1212,//57
#GOGOEND
10220202,
10201200,//59
#GOGOSTART
10010020,
10010020,//61
#GOGOEND
10121010,//62
#GOGOSTART
20202210,//63
#GOGOEND
10121010,//64
#GOGOSTART
20202210,//65
#GOGOEND
10222201,
10201200,
30030033,
3,
#BPMCHANGE 120
#MEASURE 8/4
#SCROLL 0.5
22002200,
22002200,
#BPMCHANGE 130
2200
#BPMCHANGE 140
2200,
#BPMCHANGE 150
2200
#BPMCHANGE 160
2200,
#BPMCHANGE 170
22
#BPMCHANGE 180
22
#BPMCHANGE 190
22
#BPMCHANGE 200
22,
#BPMCHANGE 210
22
#BPMCHANGE 220
22
#BPMCHANGE 230
22
#BPMCHANGE 240
22,
#MEASURE 4/4
#SCROLL 0.66
7008,
#SCROLL 0.75
7008,
#SCROLL 1
7,
8,
,
3,
4,
3,
4,
11020220,
11020220,
,
4400,//88
#GOGOSTART
10121010,
10121010,
10120210,
10121020,
10121010,
10121010,
11101110,
1,
7008,
10121010,
10121010,
10121010,
11101110,
10102025,
,
000000000000000000000008000000000000000000000000,//104
#GOGOEND
11101111,
1220,
11101011,
1111,
11101111,
1220,
11101011,
10011011,//112
#GOGOSTART
10201120,//113
#GOGOEND
1220,//114
#GOGOSTART
10201120,//115
#GOGOEND
1220,//116
#GOGOSTART
10201121,
10201121,
10201121,
10201120,
00330440,
33304400,//122
#GOGOEND
,
,
#END

COURSE:Easy
LEVEL:5
BALLOON:6,4,4,5
#START
#MEASURE 2/4
,
#MEASURE 4/4
2,
2,
22,
1110,
1111,
1220,
1111,
1210,
1111,
1220,
22,
22,
1111,
1220,
1111,
1210,
22,
22,
11,
11,
2002,
02,
,
,
07,
0008,
3,//28
#GOGOSTART
2220,//29
#GOGOEND
3,//30
#GOGOSTART
2220,//31
#GOGOEND
22,
22,
22,
2220,
3,
4,//37
#GOGOSTART
1110,
1110,
1102,
1110,
1110,
1110,
500000000000000000000000000000000000000000000008,
,
1110,
1110,
1102,
1100,
1202,
10200025,
,
000000000000000000000008000000000000000000000000,//53
#GOGOEND
1,//54
#GOGOSTART
1220,//55
#GOGOEND
1,//56
#GOGOSTART
1210,//57
#GOGOEND
1200,
1200,//59
#GOGOSTART
10010020,
10010020,//61
#GOGOEND
1,//62
#GOGOSTART
2220,//63
#GOGOEND
1,//64
#GOGOSTART
2220,//65
#GOGOEND
12,
12,
3,
,
#BPMCHANGE 120
#MEASURE 8/4
#SCROLL 0.5
22,
22,
#BPMCHANGE 130
2
#BPMCHANGE 140
2,
#BPMCHANGE 150
2
#BPMCHANGE 160
2,
#BPMCHANGE 170
2
#BPMCHANGE 180
2
#BPMCHANGE 190
2
#BPMCHANGE 200
2,
#BPMCHANGE 210
2
#BPMCHANGE 220
2
#BPMCHANGE 230
2
#BPMCHANGE 240
2,
#MEASURE 4/4
#SCROLL 0.66
7008,
#SCROLL 0.75
7008,
#SCROLL 1
7,
8,
,
3,
4,
3,
4,
1002,
1002,
,
4400,//88
#GOGOSTART
1110,
1110,
1102,
1110,
1110,
1110,
500000000000000000000000000000000000000000000008,
,
3,
1110,
1110,
1110,
11,
10101005,
,
000000000000000000000008000000000000000000000000,//104
#GOGOEND
1111,
1220,
1110,
1110,
1111,
1220,
1110,
10010010,//112
#GOGOSTART
1212,//113
#GOGOEND
1220,//114
#GOGOSTART
1212,//115
#GOGOEND
1220,//116
#GOGOSTART
1212,
1212,
1212,
1212,
0600,
000000000000000000000000000008000000000000000000,//122
#GOGOEND
,
,
#END
