//TJADB Project
TITLE:Moshi-moshi Kamisama
TITLEJA:もしもし神様
SUBTITLE:--Tezuka feat. Kagamine Rin & Kagamine Len
SUBTITLEJA:テヅカ feat.鏡音リン・鏡音レン
BPM:188
WAVE:Moshi-moshi Kamisama.ogg
OFFSET:-1.675
DEMOSTART:71.202

COURSE:Oni
LEVEL:8
BALLOON:4,12,7
SCOREINIT:470
SCOREDIFF:113
#START
10102001,
0120,
10102001,
0000100020112000,
20202021,
20212120,
2011201120201120,
0020002011104000,//8
#GOGOSTART
2010001110200022,
1000101020121022,
2010201110201011,
2002201010121022,
2010001110020020,
1000101020121022,
2010201110202010,
2210201010004000,
3000201120201120,
0020121120201022,
1022102210102210,
0022102011201111,
2010201110101020,
1020102012111040,
0012102012112020,
300000300000300000220000,//24
#GOGOEND
10202012,
00001012,
20012102,
01201120,
10201121,
01201121,
20220204,
0000000010011011,
1010221010102210,
2010221010221000,
1022101022107008,
0000201010221000,
1022101022102010,
0010221010221020,
1022100011202010,
0011202010104000,
3000201110002010,
0010202210201022,
11220404,
,
10102001,
0120,
10102001,
0000100020112000,
#MEASURE 3/4
101110102020,
101120102220,
101120102222,
200200221000,
#MEASURE 4/4
10102222,
0220,
30304444,
0000000010112000,//56
#GOGOSTART
1010222020111010,
0011102010112000,
1010222020111010,
0011102010222000,
1010222010222010,
1010222010002001,
1010222010222010,
07000080,
11,
33,
3336,
000000000000000000000008000000000000100000100100,
1010222210112010,
2210222010222012,
1011200010112000,
300000300000300000220000,
2010001110200022,
1000101020121022,
2010201110201011,
2002201010121022,
2010001110200022,
1000101020121022,
2010201110202010,
07000800,//80
#MEASURE 1/4
#BPMCHANGE 47
#SCROLL 4
#GOGOEND
42,
22,
2222,
2,
#MEASURE 4/4
#BPMCHANGE 188
#SCROLL 1
2010101120101022,
2012102012112030,
0011221012112210,
400000400000400000220000,
2220002220200022,
2000222020002000,
2220002220200022,
2000222020002000,
2220002220200022,
2000222020222020,
2020202220202040,
#END

COURSE:Hard
LEVEL:6
BALLOON:11,2,8,10,5
SCOREINIT:440
SCOREDIFF:110
#START
10102001,
0120,
10102001,
0000100020111000,
20202021,
20202120,
10101112,
0020002000222000,//8
#GOGOSTART
21012101,
20212110,
21012101,
20212110,
2010001020020020,
20212110,
21212202,
02022040,
30112101,
01112010,
10112101,
01112020,
21201212,
12121117,
0008,
3330,//24
#GOGOEND
10202012,
00001012,
20012102,
01201120,
10201121,
01201121,
20220204,
0000000010011000,
11101112,
10211210,
21121070,
80211210,
11201121,
01201121,
10201221,
01111040,
30211021,
01201120,
11220404,
,
10102001,
0120,
10102001,
0000100020222000,
#MEASURE 3/4
100110,
200220,
300340,
300300304000,
#MEASURE 4/4
10102222,
,
30304444,
0000000020222000,//56
#GOGOSTART
11201021,
01221120,
11201021,
01221120,
11201021,
0010202010002001,
11221021,
07000080,
11,
33,
3336,
000000000000000000000008000000000000000000000000,
1000111010001000,
1000222010002220,
7008,
3330,
21012101,
20212110,
21012101,
20212110,
21012101,
20212110,
21212202,
07000800,//80
#MEASURE 1/4
#BPMCHANGE 47
#SCROLL 4
#GOGOEND
42,
22,
2222,
2,
#MEASURE 4/4
#BPMCHANGE 188
#SCROLL 1
21211212,
0020002020111040,
0011100020111000,
4440,
22022202,
20222000,
22022202,
20222020,
22022202,
2000202020222020,
2020202220202040,
,
,
#END

COURSE:Normal
LEVEL:5
BALLOON:5,6,6,6,7,6,5
#START
10102001,
0120,
10102001,
0120,
10102001,
,
10101007,
08,//8
#GOGOSTART
10011001,
1120,
10011001,
1120,
10011001,
1120,
10101007,
0008,
10101001,
0120,
10101001,
0120,
1111,
10101007,
0008,
3330,//24
#GOGOEND
20202002,
,
20002002,
,
20202002,
,
4,
,
10101001,
,
17,
0800,
10101001,
0220,
20202002,
0110,
10101001,
0110,
20200404,
,
10102001,
0120,
10102001,
0120,
#MEASURE 3/4
11,
22,
33,
3,
#MEASURE 4/4
10102222,
,
30304444,
,//56
#GOGOSTART
10201001,
01201000,
10201001,
01201000,
10201001,
01201020,
10201007,
0008,
11,
33,
3336,
000000000000000000000008000000000000000000000000,
1111,
11,
7008,
3330,
10011001,
1120,
10011001,
1120,
10011001,
1120,
10101007,
00000800,//80
#MEASURE 1/4
#BPMCHANGE 47
#SCROLL 4
#GOGOEND
42,
22,
2222,
2,
#MEASURE 4/4
#BPMCHANGE 188
#SCROLL 1
10101022,
01022011,
01101110,
4440,
20022002,
20222000,
20022002,
20222000,
20022002,
20222000,
20222004,
,
,
#END

COURSE:Easy
LEVEL:3
#START
,
,
,
,
11,
,
10101007,
08,//8
#GOGOSTART
11,
0220,
11,
0220,
11,
0220,
10101007,
0008,
1110,
0220,
1110,
0220,
1110,
10101007,
0008,
3330,//24
#GOGOEND
22,
,
2,
,
2220,
,
4,
,
11,
,
7,
0800,
1110,
0220,
10101003,
,
11,
02,
10100404,
,
12,
02,
12,
02,
#MEASURE 3/4
1,
1,
3,
3,
#MEASURE 4/4
500000000000000000000000000000000000000008000000,
,
600000000000000000000000000000000000000008000000,
,//56
#GOGOSTART
1110,
0220,
10101007,
0008,
1110,
0220,
10101007,
0008,
11,
33,
3336,
000000000000000000000008000000000000000000000000,
1110,
11,
7008,
3330,
11,
0220,
11,
0220,
11,
0220,
10001007,
00000800,//80
#MEASURE 1/4
#BPMCHANGE 47
#SCROLL 4
#GOGOEND
42,
22,
2222,
2,
#MEASURE 4/4
#BPMCHANGE 188
#SCROLL 1
1110,
10101007,
0008,
4440,
22,
2220,
22,
2220,
22,
2220,
20202004,
,
,
#END
