//TJADB Project
TITLE:Dramaturgy
TITLEJA:ドラマツルギー
SUBTITLE:--Eve
SUBTITLEJA:Eve
BPM:149
WAVE:Dramaturgy.ogg
OFFSET:-6.688
DEMOSTART:60.446

COURSE:Edit
LEVEL:8
SCOREINIT:690
SCOREDIFF:195
#START
0000220220002202,
2,
0000220220000040,
0020202020221000,
#GOGOSTART
1102020210201000,
1121121000202000,
1102020210201000,
1121121000222000,
1102020210201000,
1221221000202000,
1102020210201000,
1221221000222000,
#GOGOEND
1001201200102000,
1002101200102000,
1001201200102000,
1002101200102000,
1011201200102000,
1022101200102000,
1011201200102000,
1022102101201020,
1011202212010020,
1022102212010122,
1011202212010122,
1022102212010020,
1011202100102011,
1022101200102011,
1011202100102011,
1020211200102000,
1112002011120020,
1112002011120020,
1022102110221021,
1011101210111012,
5,
000000000000000008000000400000000000000000000000,
#GOGOSTART
3022102112010020,
1022112212210020,
1022102112010020,
1022112212210020,
1022102210221120,
1022102210221120,
10410401,
04111444,
3022102112010020,
1022112212210020,
1022102112010020,
1022112210201020,
500000000008000000200000200000200000200000200000,
1210004000400040,
10440101,
04444444,
#GOGOEND
3,
#BPMCHANGE 142.85
#SCROLL 1.04
2
#BPMCHANGE 127.6
#SCROLL 1.13
2
#BPMCHANGE 135
#SCROLL 1.03
2
#SCROLL 1
2,
#END

COURSE:Oni
LEVEL:5
BALLOON:15,25,25,35
SCOREINIT:1270
SCOREDIFF:408
#START
,
,
,
,
#GOGOSTART
10201120,
1001001000202000,
10201120,
1001001000202000,
10201120,
1001001000202000,
10201120,
1001001000202000,
#GOGOEND
10200120,
10200120,
10200120,
10200120,
10201120,
10201120,
7,
8,
1010200011102000,
1010200011102000,
1010200011102000,
1010200011102000,
10210120,
10210120,
7,
08,
3003000040040000,
3003000040040000,
10101011,
10111111,
5,
000000000000000008000000400000000000000000000000,
#GOGOSTART
3332,
1020101110002000,
1020101110002000,
1020101110002000,
10211020,
10211020,
7,
08,
3332,
1020101110002000,
1020101110002000,
1020101110002000,
10211020,
10211020,
7,
,
#GOGOEND
8,
#BPMCHANGE 142.85
#SCROLL 1.04
2
#BPMCHANGE 127.6
#SCROLL 1.13
2
#BPMCHANGE 135
#SCROLL 1.03
2
#SCROLL 1
2,
#END

COURSE:Hard
LEVEL:3
BALLOON:12,19,19,25
SCOREINIT:1380
SCOREDIFF:410
#START
,
,
,
,
#GOGOSTART
1210,
10000220,
1210,
10000220,
1210,
10000220,
1210,
10000220,
#GOGOEND
1002,
1002,
1002,
1002,
1202,
1202,
7,
8,
10200120,
10200120,
10200120,
10200120,
10210120,
10210120,
7,
08,
33,
33,
10101011,
10111011,
5,
000000000000000000000008000000000000000000000000,//34
#GOGOSTART
3330,
12101020,
12101020,
12101020,
1012,
1012,
7,
08,
3330,
12102020,
12102020,
12102020,
1012,
1012,
7,
,//50
#GOGOEND
8,
2
#BPMCHANGE 146
2
#BPMCHANGE 143
2
#BPMCHANGE 140
2,
,
,
#END

COURSE:Normal
LEVEL:2
BALLOON:9,9,14,19
#START
,
,
,
,//4
#GOGOSTART
1110,
1,
1110,
1,
1110,
1,
1110,
1,//12
#GOGOEND
1001,
1001,
1001,
1001,
1002,
1002,
7,
8,
1001,
1001,
1001,
1001,
1002,
1002,
7,
08,
33,
33,
1111,
1111,
5,
000000000000000000000008000000000000000000000000,//34
#GOGOSTART
3330,
1120,
1120,
1120,
12,
12,
7,
08,
3330,
1120,
1120,
1120,
12,
12,
7,
,//50
#GOGOEND
8,
2
#BPMCHANGE 146
2
#BPMCHANGE 143
2
#BPMCHANGE 140
2,
,
,
#END

COURSE:Easy
LEVEL:2
BALLOON:8,8,12,15
#START
,
,
,
,//4
#GOGOSTART
11,
1,
11,
1,
11,
1,
11,
1,//12
#GOGOEND
1,
1,
2,
2,
1,
1,
7,
8,
1,
1,
2,
2,
1,
1,
7,
08,
33,
33,
1110,
1110,
5,
000000000000000000000008000000000000000000000000,//34
#GOGOSTART
3330,
1,
1110,
1,
1,
1,
7,
08,
3330,
1,
1110,
1,
11,
11,
7,
,//50
#GOGOEND
8,
2
#BPMCHANGE 146
2
#BPMCHANGE 143
2
#BPMCHANGE 140
2,
,
,
#END
