//TJADB Project
TITLE:Amphit◇rite
TITLEJA:アムピト♢リーテー
SUBTITLE:--Kaneko Chiharu
SUBTITLEJA:かねこちはる
BPM:128
WAVE:Amphitrite.ogg
OFFSET:-2.001
DEMOSTART:82.176

COURSE:Oni
LEVEL:10
BALLOON:16,5
SCOREINIT:440
SCOREDIFF:108
#START
1020020020020020,
2002000020020020,
0020020020020020,
2002000020020020,
1020021020020020,
2012001020120020,
1020021020020020,
200000202020200000100000200000100200200000200000,
1001201000102011,
1001201000102000,
1001201000102010,
1001201000102022,
1010101010101012,
1010101010101012,
1111111111111111,
78,
#BPMCHANGE 110
100000202020200200200200200000000200200020202020,
200222200200200000222222,
100000202020200200000200100200200000200000200000,
222200000000222200000000200020002000200000300000,
#BPMCHANGE 220
10210122,
1020202010222010,
100200002000200020002000,
2010201022112210,
1020002010210110,
1011201000201020,
3000112030001120,
2000112010200000,
#SCROLL 0.7
1111,
#SCROLL 0.8
1111,
#SCROLL 0.9
1010101011111111,
#SCROLL 1
111111111111700000800000,
#SCROLL 0.5
10012000,
1001001020202020,
10210222,
1001201020002000,
100000000100200020002000,
1001001220020020,
10212222,
100000000100200000100000200000002000000020000000,
#SCROLL 1.5
200000200000200000200000500000000000000008000000,
#SCROLL 1.25
2010201120102010,
21221222,
11212121,
#SCROLL 1
4,
200100200200200020002000,
2211221122212221,
500000000000000000000000000000000000000008000000,
#SCROLL 1.25
2002002000000022,
200000000200000000200000000000000000200020002000,
2002002000002222,
2002002000222022,
2002002000202020,
2022022000202020,
2012012000202020,
2000002000200011,
1000101011111111,
111111111111111111200000,//58
#SCROLL 1
#GOGOSTART
1011201022201012,
1020102210201012,
1010101020212020,
200000200000100000002020200000100100200200100000,
2011202012202020,
1020102220201020,
1021202010212022,
1222122222112211,
1011201022201012,
1020102210201012,
1010101020212020,
200000200000100000002020200000100100200200100000,
2011201012202012,
1020121110201020,
100000100100200000200200200000200000100000202020,
2111211122112211,//74
#GOGOEND
111111200000000000000000,
#SCROLL 1.1
20220202,
#SCROLL 1.2
20220202,
#SCROLL 1.3
20220202,
1220100010221020,
10121010,
1201102010001020,
1000100012221222,
10121212,
12101212,
1111,
#SCROLL 1
2111211121112111,//86
#GOGOSTART
100111200100111200100222,
2010201020102022,
1000201010112000,
1010201021112010,
100111200100111200100121,
2010201020102022,
100111200100111200100121,
2010201022102210,
2111212111212111,
500000000000000000000000000000000000000000000008,//96
#MEASURE 8/4
#GOGOEND
00000000200000222000002000002000,
#SCROLL 1.1
10200200
#SCROLL 1.2
20020020,
#SCROLL 1.3
00200200
#SCROLL 1.4
20020020,
#END

COURSE:Hard
LEVEL:8
BALLOON:9
SCOREINIT:520
SCOREDIFF:130
#START
1020020020020020,
2002000020020020,
0020020020020020,
2002000020020020,
0020020020020020,
2002000020020020,
0020020020020020,
1001000010002020,
10210120,
1001001000102000,
10210120,
1001001000102000,
1111,
1111,
11111111,
78,
#BPMCHANGE 110
1002022220020000,
1001002020000000,
1020220202202020,
200000200000202020200300,
#BPMCHANGE 220
10210120,
10210120,
100200002000200020002000,
200000000000000000000000500000000000000008000000,
1020002010010010,
11210201,
33,
20120200,
#SCROLL 0.7
1111,
#SCROLL 0.8
1111,
#SCROLL 0.9
1010101011101110,
#SCROLL 1
500000000000000000000000000000000008000000000000,
#SCROLL 0.5
10012000,
1001001020002000,
10012000,
1001001020002000,
100000000100200020002000,
1001001020020020,
10012020,
1001001020000000,
#SCROLL 1.5
200000000000000000000000500000000000000008000000,
#SCROLL 1.25
21212120,
20220222,
20212120,
#SCROLL 1
4,
200200202020,
21212121,
500000000000000000000000000000000000000008000000,
#SCROLL 1.25
2002002000000000,
2002002000000000,
2002002000000000,
2002002000000000,
2002002000202000,
2002002000000000,
2002002000202000,
20020200,
10110101,
10111120,//58
#SCROLL 1
#GOGOSTART
1000201022200020,
02102010,
11110022,
2020002220002000,
20110202,
02102202,
00210210,
2010201022202220,
1000201022200020,
02102020,
11110022,
2020002220002000,
20110202,
01212202,
01212200,
2220111011102220,//74
#GOGOEND
0400,
#SCROLL 1.1
20220202,
#SCROLL 1.2
20220202,
#SCROLL 1.3
20220202,
10101012,
1111,
10101012,
10101212,
10121212,
10101212,
1111,
500000000000000000000000000000000008000000000000,//86
#SCROLL 1
#GOGOSTART
10201201,
20212121,
1000201000111000,
10212121,
10201201,
20212121,
10201201,
20212120,
20220220,
500000000000000000000000000000000000000000000008,//96
#MEASURE 8/4
#GOGOEND
00000000200000222000002000002000,
#SCROLL 1.1
10200200
#SCROLL 1.2
20020020,
#SCROLL 1.3
00200200
#SCROLL 1.4
20020020,
#SCROLL 1.5
,
#SCROLL 2
,
#MEASURE 4/4
,
#END

COURSE:Normal
LEVEL:7
BALLOON:6
#START
1020020020020000,
2002000020020000,
0020020020020000,
2002000020020000,
0020020020020000,
2002000020020000,
0020020020020000,
1001000000002000,
1001000000002000,
1001000010010000,
1001000000002000,
1001000020020000,
1111,
1111,
1111,
78,
#BPMCHANGE 110
1001000010010000,
2002002020000000,
12202220,
20202003,
#BPMCHANGE 220
1002,
1101,
100222,
200000000000000000000000500000000000000008000000,
11,
10110100,
33,
10110100,
#SCROLL 0.7
11,
#SCROLL 0.8
11,
#SCROLL 0.9
10101111,
#SCROLL 1
500000000000000000000000000000000008000000000000,
#SCROLL 0.5
12,
1,
11,
2,
12,
1,
11,
2,
#SCROLL 1.5
2,
#SCROLL 1
1111,
1111,
2222,
4,
1111,
1111,
500000000000000000000000000000000000000008000000,
20020000,
20020000,
20020000,
20020000,
20020000,
2002002000000000,
20020000,
20020000,
10110100,
10110120,//58
#GOGOSTART
10202202,
02201010,
11110022,
22002020,
10110101,
02202202,
00100110,
500000000000000000000000000000000008000000000000,
10202202,
02201010,
11110022,
22002020,
10110101,
02220202,
01110100,
500000000000000000000000000000000000000008000000,//74
#GOGOEND
0400,
,
2,
2,
1011,
1011,
1011,
12,
20002002,
00202002,
,
500000000000000000000000000000000008000000000000,//86
#GOGOSTART
10201201,
2222,
10110110,
0222,
10201201,
2222,
10201201,
2222,
20220220,
500000000000000000000000000000000000000000000008,//96
#MEASURE 8/4
#GOGOEND
0000200020020020,
1020020020020020,
0020020020020020,
,
,
#MEASURE 4/4
,
#END

COURSE:Easy
LEVEL:5
BALLOON:5
#START
12,
2,
12,
2,
12,
2,
12,
1,
1,
11,
1,
11,
1110,
1110,
1111,
78,
#BPMCHANGE 110
11,
22,
1,
2220,
#BPMCHANGE 220
1,
1101,
12,
200000000000000000000000500000000000000008000000,
11,
10110100,
33,
10110100,
#SCROLL 0.7
11,
#SCROLL 0.8
11,
#SCROLL 0.9
10101110,
#SCROLL 1
500000000000000000000000000000000008000000000000,
#SCROLL 0.5
12,
1,
11,
2,
12,
1,
11,
2,
#SCROLL 1.5
2,
#SCROLL 1
1110,
11,
2220,
4,
11,
1110,
500000000000000000000000000008000000000000000000,
2,
2,
2,
2,
20020000,
20020000,
20020000,
20020000,
11,
1112,//58
#GOGOSTART
10001002,
0220,
1102,
2022,
10100101,
0220,
0101,
500000000000000000000000000000000008000000000000,
10001002,
0220,
1102,
2022,
10100101,
02020202,
01010200,
500000000000000000000000000000000000000008000000,//74
#GOGOEND
0400,
,
,
,
11,
1,
11,
12,
20000202,
00202002,
,
500000000000000000000000000000000008000000000000,//86
#GOGOSTART
1120,
1120,
1102,
0222,
1120,
1120,
1120,
2220,
20200220,
500000000000000000000000000000000000000000000008,//96
#MEASURE 8/4
#GOGOEND
,
1020000020020020,
0020000020020020,
,
,
#MEASURE 4/4
,
#END
