//TJADB Project
TITLE:Surfside Satie
TITLEJA:サーフサイド・サティ
SUBTITLE:--Yuuji Masubuchi
BPM:150
WAVE:Surfside Satie.ogg
OFFSET:-1.724
DEMOSTART:1.724

COURSE:Oni
LEVEL:8
SCOREINIT:400
SCOREDIFF:103
#START
300000000000000022200200,
1001102000111010,
1001102000111020,
1001102000111010,
1001102000111020,
1001102000111010,
2012201110201020,
1022201110102010,
300000000000000022200200,
1001102020111020,
1001102020112212,
1001102020111020,
1001102020112212,
1001102020111020,
2012201110201020,
1022211112222111,
1010101020112020,
10211021,
10211014,
1001102020111020,
1001102020112112,
1022201010222010,
1022201010221040,
1001102020111020,
1222202220101020,
300000000000000011200000,//26
#GOGOSTART
1212121212121212,
1212121212121212,
1212121212121212,
100000000000200020002000200000100000200200100000,
1212121212121212,
1212121212121212,
1212121212121212,
1111111110000000,//34
#GOGOEND
1022202000102010,
1022202000102010,
1022202000102010,
300000221122,
1022202000102011,
1022202000102220,
1020102110201020,
1011211210122010,
1022202000102010,
1022202000102010,
1022201022201020,
1022202000102010,
1022202000102010,
1022202000102220,
30000220,
100222200111100111100200,
1001104000102010,
1001104000102011,
1001104000102010,
200000101010100000400000000000100100200000100000,
1001104000102010,
1001104000102011,
1001104000102010,
1001104011011030,
0011104000102011,
1011104000102011,
1011104000102011,
2012012000112211,
1001104000102010,
1001104000102011,
1001104000102010,
1001104022221030,
0010102000102011,
1010102001102000,
3,
102201200102,
201200304030,
1022201000102011,
1022201000102210,
200010001000200010001000100100200100100200100000,
0010210110102101,
1010210110222222,//76
#GOGOSTART
1010210110102101,
1010210110102101,
1010210110102101,
1010210110112101,
1010210110102101,
1010201111112111,
1001002101102102,
1011220101121120,
1000000050000000000000000000000000000008000000002000000030000000,//85
#GOGOEND
,
#END

COURSE:Hard
LEVEL:8
BALLOON:6
SCOREINIT:510
SCOREDIFF:133
#START
30000022,
1001102000101000,
1001102000102000,
1001102000101000,
1001102000102000,
1001102000101000,
2002201000102000,
1022201110101000,
30000022,
1001102020101000,
1001102020111000,
1001102020101000,
1001102020111000,
1001102020101000,
2002201010201000,
1708,
11113000,
10011001,
10011000,
1001102020101000,
1001102020111000,
10211021,
10211000,
1001102020101000,
1110102220202000,
3004,//26
#GOGOSTART
1010101110101011,
1010101110101011,
1010101110101011,
100000202020200200200000,
1010101110101011,
1010101110101011,
1010101110101010,
1111111110000000,//34
#GOGOEND
1022202000001000,
1022202000001000,
1022202000001000,
300000221100,
1022202000001000,
1022202000001000,
12121210,
1001101010022020,
1022202000001000,
1022202000001000,
1022201022201000,
1022202000001000,
1022202000001000,
1022202000001000,
3,
1022201110111000,
1001102000102000,
1001102000102000,
1001102000102000,
1011102000003000,
1001102000101000,
1001102000101000,
1001102000101000,
1001102011011030,
0001102000101000,
1001102000101000,
1001102000101000,
3003003000004000,
1001102000101000,
1001102000101000,
1001102000101000,
1001102011111010,
01020120,
11020120,
3,
1221,
100200102020,
1001102000102000,
1001102000202000,
200020002000200000000000100000000100000000100000,
01201120,
1010200010222220,//76
#GOGOSTART
1010220010102200,
1010220010102200,
1010220010102200,
1010220010112200,
1010220010102200,
1010202011112200,
1001002000102000,
1001002001102000,
1000000050000000000000000000000000000000000000080000000030000000,//85
#GOGOEND
,
#END

COURSE:Normal
LEVEL:7
BALLOON:4,6,6,6,6,6,6
SCOREINIT:770
SCOREDIFF:225
#START
3,
10011020,
0110,
10011020,
0110,
10011000,
20022000,
11101110,
3,
10011020,
00111000,
10011020,
00111000,
10011000,
20022000,
1708,
3,
10011000,
10011000,
10011020,
00111000,
10011000,
10011000,
10011020,
5000000000000000000000000000000000000000000000080000000000000000,
3,//26
#GOGOSTART
11101110,
11101110,
11101110,
3,
11101110,
11101110,
11101110,
1130,//34
#GOGOEND
10220020,
10220020,
10220020,
3,
10220020,
10220020,
10101110,
11103000,
10220020,
10220020,
10220020,
10220020,
10220020,
10220020,
3,
3,
10070000,
80070000,
80070000,
80030000,
00010010,
00010010,
00010010,
00010011,
00070000,
80070000,
8000000000000000000000005000000000000000000000080000000000000000,
3003003000000000,
00010010,
00010010,
00010010,
00010012,
00010010,
20010010,
3,
1221,
2230,
00010120,
00010120,
10000003,
01101110,
11103000,//76
#GOGOSTART
1010110000101000,
1010110000101000,
1010110000101000,
1010110000101000,
1010110000101000,
11101110,
10020010,
10020010,
50000803,//85
#GOGOEND
,
#END

COURSE:Easy
LEVEL:5
SCOREINIT:570
SCOREDIFF:195
#START
,
10011000,
0110,
10011000,
0110,
10011000,
20022000,
10011010,
3,
10011000,
0110,
10011000,
0220,
10011000,
20022000,
5000000000000000000000000000000000000008000000000000000000000000,
3,
10011000,
10011000,
1100,
0202,
10011000,
10011000,
1100,
5000000000000000000000000000000000000008000000000000000000000000,
3,//26
#GOGOSTART
10001110,
10001110,
10001110,
3,
10001110,
10001110,
10001110,
1130,//34
#GOGOEND
10220000,
10220000,
10220000,
3,
10220000,
10220000,
1110,
11101000,
10220000,
10220000,
10220000,
10220000,
10220000,
10220000,
3,
3,
1000000000000000000000005000000000000000000000000000000000000008,
0000000000000000000000005000000000000000000000000000000000000008,
0000000000000000000000005000000000000000000000000000000000000008,
00030000,
10010000,
10010000,
10010000,
10010003,
0000000000000000000000005000000000000000000000000000000000000008,
0000000000000000000000005000000000000000000000000000000000000008,
0000000000000000000000005000000000000008000000000000000000000000,
3003003000000000,
10010000,
10010000,
10010000,
10010002,
00010000,
20010000,
3,
1001,
1110,
10020000,
10020000,
10101003,
0101,
0130,//76
#GOGOSTART
1202,
1202,
1202,
1202,
1202,
1130,
5000000000000000000000080000000000000000000000002000000000000000,
5000000000000000000000080000000000000000000000002000000000000000,
5000000000000000000000000000000800000000000000000000000030000000,//85
#GOGOEND
,
#END
