//TJADB Project
TITLE:Shippuudotou
TITLEJA:疾風怒濤
SUBTITLE:--xi
SUBTITLEJA:xi
BPM:136
WAVE:Shippuudotou.ogg
OFFSET:-1.947
DEMOSTART:75.219

COURSE:Edit
LEVEL:10
BALLOON:16
SCOREINIT:350
SCOREDIFF:78
#START
100000200200202020200000000000000000200200202020,
200000200000200000200000200200200200202020202020,
10001111,
10200001,
10001111,
1000200000101111,
1000001110101010,
1000200000111011,
1000001110101012,
200000000000200200100100200200100100202010101010,
100200200200200200100100200200100100200200101010,
#BPMCHANGE 272
#SCROLL 0.5
100100100200100100100100100010001000200020002000,
#BPMCHANGE 220.78
#SCROLL 0.61
1111
#BPMCHANGE 214.83
#SCROLL 0.63
2222
#BPMCHANGE 216.26
#SCROLL 0.62
1111
#BPMCHANGE 180.87
#SCROLL 0.75
2222,
#MEASURE 6/4
#BPMCHANGE 238.7
#SCROLL 0.56
1212
#BPMCHANGE 232.53
#SCROLL 0.58
1212
#BPMCHANGE 212.99
#SCROLL 0.63
1212
#BPMCHANGE 181.47
#SCROLL 0.74
1212
#BPMCHANGE 165.86
#SCROLL 0.81
1212
#BPMCHANGE 117.43
#SCROLL 1.15
1212,
#MEASURE 1/4
#BPMCHANGE 67.99
#SCROLL 2
1,
#BPMCHANGE 272
#SCROLL 1
#MEASURE 4/4
3,
2211221122112211,
1000101011112220,
21221121,
31212121,
2010202011111111,
1010201010101111,
2000111120101111,
200100100200100020201010,
100000001000100020001000100020001000100200200200,
11111111,
1010101022222222,
11111111,
1010101022112211,
1010111020101110,
2211221122112211,
11111122,
2222111122112211,
2111112111112111,
2111211121212000,
302001200120,
300300101221,
101222111211,
102101102112,
001102104000,
300300101112,
000202002201,
000100201202,
001001222122,
300300101221,
100000001000200020002000100010001000100100100100,
101212122112,
001102104000,
300300101111,
200010001000200100100100200100100100100100200200,
101101201101,
001001002000,
7,
0008,
10012010,
20120120,
10010220,
2000202020202222,
10012010,
2000102020202222,
1020201020221020,
2010202210201022,
1020201020221020,
2010202210202220,
3020201020221020,
2010202210201020,
2010112010102011,
2010200010002005,
,
000000000000000000000000000000000000000008000000,
03,
3000000011112000,//72
#GOGOSTART
100102100100,
102100201202,
100102100100,
102100201202,
100100202003,
001200100102,
111111201111,
301300303030,
100102100100,
102100201202,
100102100100,
102100201202,
202100201002,
002102111222,
1010101110101111,
111400400400,
1111200010001000,
12101022,
1010111110202020,
1020102011112010,
1011202010201020,
101010101010200200100100,
1010211120102111,
200100100100200100100100200000002000000020000000,
1111102010001000,
1010201020102022,
1010222210202020,
1020102011112020,
1111222211112020,
100100100100100100100000400000004000000040000000,
1010101110101022,
1110002211112211,//104
#GOGOEND
11222211,
200200200200101010202020,
12212122,
200020001000100020001000100010002000100100100100,
11122211,
100200200200102020102020,
11212112,
200010001000100020001000100020002000100200200100,
11112211,
100100200200101020101020,
11121121,
200010001000100020001000100010002000200100100100,
1000203000111022,
1000203000111022,
12121212,
1022102210221222,
1111222211112211,
2111211122112211,
000000000000600000000000000000000000000008000000,
2211221122112211,
5,
,
,
000000000000000000000000000000000000000000000008,
#END

COURSE:Oni
LEVEL:10
BALLOON:46,16
SCOREINIT:470
SCOREDIFF:110
#START
1022222000002222,
2020202022222022,
10001111,
10200001,
10001111,
10200111,
10001111,
10200111,
1000000010101012,
2000221122112211,
1222221022112110,
#BPMCHANGE 272
#SCROLL 0.5
500000000000000000000000000000000008000000000000,
#BPMCHANGE 220.78
#SCROLL 0.61
7
#BPMCHANGE 214.83
#SCROLL 0.63
0
#BPMCHANGE 216.26
#SCROLL 0.62
0
#BPMCHANGE 180.87
#SCROLL 0.75
0,
#MEASURE 6/4
#BPMCHANGE 238.7
#SCROLL 0.56
0
#BPMCHANGE 232.53
#SCROLL 0.58
0
#BPMCHANGE 212.99
#SCROLL 0.63
0
#BPMCHANGE 181.47
#SCROLL 0.74
0
#BPMCHANGE 165.86
#SCROLL 0.81
0
#BPMCHANGE 117.43
#SCROLL 1.15
0,
#MEASURE 1/4
#BPMCHANGE 67.99
#SCROLL 2
8,
#BPMCHANGE 272
#SCROLL 1
#MEASURE 4/4
3,
2010201020102220,
30101122,
21221121,
31212121,
2010202022201010,
31211111,
41114111,
21121121,
100100222200,
11111111,
1010101022201010,
11111111,
1010101022201010,
11112111,
21212111,
21111122,
2220101022201010,
21121121,
21212220,
302001200120,
300300100201,
000222222100,
100200100001,
000102204000,
300300100201,
000202002201,
000100201202,
001101201100,
300300100201,
000222222100,
101201101201,
001102204000,
300300100222,
111222111200,
100101200101,
001001002000,
7,
0008,
10012010,
20120120,
10010220,
20020220,
10012010,
20120120,
12212212,
21221212,
12212212,
21221222,
32212212,
21221212,
21121121,
21201025,
,
000000000000000000000000000000000000000008000000,
03,
3000000011102000,//72
#GOGOSTART
1211,
102100201202,
100201000100,
102100201202,
100100202003,
000100202100,
111101101100,
300300303030,
1211,
102100201202,
100201000100,
102001100200,
500000000000000000000000000008000000000000002000,
101201201202,
21111111,
1443,
1211,
12101211,
1020111010201020,
1020102011101000,
11121212,
101010100000200200100100,
1010111010101110,
100000100000100100100000200000002000000020000000,
1110200010001000,
12102122,
1020111010201020,
1020102011101000,
1110202011102020,
100100100000100100100000400000004000000040000000,
11111111,
1110201011112000,//104
#GOGOEND
11222211,
200200200200100000202020,
12212122,
500000000000000000000000000000000000000008000000,
11122211,
100200200200100000102020,
11212112,
500000000000000000000000000000000000000008000000,
11112211,
100100200200100000101020,
11121121,
500000000000000000000000000000000000000008000000,
1000203000111020,
1000203000111020,
1111,
12121212,
1110222011102220,
2010201022102210,
000000000000600000000000000000000000000008000000,
2210221022102210,
5,
,
,
000000000000000000000000000000000000000000000008,
#END

COURSE:Hard
LEVEL:8
BALLOON:34,16,18
SCOREINIT:470
SCOREDIFF:110
#START
1020222000002022,
2020202022202000,
10001111,
10200001,
10001111,
10200111,
10001111,
10200111,
10001111,
20200111,
1,
#BPMCHANGE 272
#SCROLL 0.5
500000000000000000000000000000000008000000000000,
#BPMCHANGE 220.78
#SCROLL 0.61
7
#BPMCHANGE 214.83
#SCROLL 0.63
0
#BPMCHANGE 216.26
#SCROLL 0.62
0
#BPMCHANGE 180.87
#SCROLL 0.75
0,
#MEASURE 6/4
#BPMCHANGE 238.7
#SCROLL 0.56
0
#BPMCHANGE 232.53
#SCROLL 0.58
0
#BPMCHANGE 212.99
#SCROLL 0.63
0
#BPMCHANGE 181.47
#SCROLL 0.74
0
#BPMCHANGE 165.86
#SCROLL 0.81
0
#BPMCHANGE 117.43
#SCROLL 1.15
0,
#MEASURE 1/4
#BPMCHANGE 67.99
#SCROLL 2
8,
#BPMCHANGE 272
#SCROLL 1
#MEASURE 4/4
3,
2222,
30101022,
2212,
3212,
10102220,
30112010,
41114111,
20120120,
10101022,
10101111,
10102210,
10101111,
10102210,
10112011,
21112120,
11111110,
22112211,
5,
000000000000000000000000000000000008000000000000,
3,
300300000001,
0120,
100100200001,
000101004000,
300300000001,
000202002201,
000100200202,
000100202200,
300100000001,
0211,
100200100201,
000100104000,
300300000001,
000100201100,
100000200001,
001001002000,
7,
0008,
12,
20020020,
10010000,
20000012,
12,
22,
10210210,
21021010,
10210210,
21021010,
30210210,
21021010,
20220220,
200200100205,
,
000000000000000000000000000000000000000008000000,
03,
3012,//72
#GOGOSTART
100002000100,
000100202202,
100002000100,
002000202202,
100100202003,
0121,
100101100100,
300300303030,
100002000100,
000100202202,
100002000100,
002000200200,
500000000000000000000000000008000000000000000000,
101100200200,
100000000010000100100100,
1444,
1212,
12101020,
10221020,
12121110,
10121210,
10102211,
10111011,
100100100000200020002000,
1211,
12102211,
10121121,
12112120,
500000000000000000000000000008000000000000000000,
100100100000400040004000,
10010110,
11210222,//104
#GOGOEND
10222210,
22221020,
12212122,
500000000000000000000000000000000000000008000000,
10122210,
12221020,
11212112,
500000000000000000000000000000000000000008000000,
10112210,
11221020,
11121121,
500000000000000000000000000000000000000008000000,
10030010,
10030010,
1111,
12121212,
7,
,
800000000000600000000000000000000000000008000000,
21212211,
5,
,
,
000000000000000000000000000000000000000000000008,
,
,
,
#END

COURSE:Normal
LEVEL:7
BALLOON:22,9,18
#START
1002,
22222020,
10001110,
10200001,
10001110,
1201,
10001110,
1201,
10001110,
2201,
1,
#BPMCHANGE 272
#SCROLL 0.5
500000000000000000000000000000000008000000000000,
#BPMCHANGE 220.78
#SCROLL 0.61
7
#BPMCHANGE 214.83
#SCROLL 0.63
0
#BPMCHANGE 216.26
#SCROLL 0.62
0
#BPMCHANGE 180.87
#SCROLL 0.75
0,
#MEASURE 6/4
#BPMCHANGE 238.7
#SCROLL 0.56
0
#BPMCHANGE 232.53
#SCROLL 0.58
0
#BPMCHANGE 212.99
#SCROLL 0.63
0
#BPMCHANGE 181.47
#SCROLL 0.74
0
#BPMCHANGE 165.86
#SCROLL 0.81
0
#BPMCHANGE 117.43
#SCROLL 1.15
0,
#MEASURE 1/4
#BPMCHANGE 67.99
#SCROLL 2
8,
#BPMCHANGE 272
#SCROLL 1
#MEASURE 4/4
3,
2220,
31,
2212,
31,
1122,
3011,
44,
20020020,
1110,
1111,
12,
1111,
2220,
1120,
2210,
10010010,
2121,
5,
000000000000000000000000000000000008000000000000,
3,
300300000001,
0120,
100100200001,
0100,
300300000001,
000100200001,
000000200002,
0220,
300300000001,
0120,
100100200002,
0200,
300300000001,
0120,
100000200001,
001001002000,
7,
0008,
12,
20020020,
1,
2,
12,
22,
10010010,
01001010,
10010010,
01001010,
30010010,
01001010,
10010010,
000100000000100000000050,
,
000000000000000000000000000000000000000008000000,
03,
32,//72
#GOGOSTART
100002000000,
1212,
100002000100,
002000200200,
100100200003,
0122,
1110,
3330,
100002000000,
1212,
100002000100,
002000100100,
500000000000000000000000000008000000000000000000,
1122,
100001000000,
1444,
10020000,
1212,
10020010,
02001020,
1122,
1212,
10111011,
1120,
10020000,
1212,
10020010,
02001020,
500000000000000000000000000008000000000000000000,
11104000,
10010010,
20020020,//104
#GOGOEND
1221,
2212,
1221,
500000000000000000000000000008000000000000000000,
1121,
1212,
1212,
500000000000000000000000000008000000000000000000,
1111,
1112,
1112,
500000000000000000000000000008000000000000000000,
10030000,
10030000,
1111,
1111,
7,
,
800000000000600000000000000000000000000008000000,
2211,
5,
,
,
000000000000000000000000000000000000000000000008,
,
,
,
#END

COURSE:Easy
LEVEL:5
BALLOON:12,9,10
#START
1,
2220,
1011,
1,
1011,
1,
1011,
1,
1011,
2,
1,
#BPMCHANGE 272
#SCROLL 0.5
500000000000000000000000000000000008000000000000,
#BPMCHANGE 220.78
#SCROLL 0.61
7
#BPMCHANGE 214.83
#SCROLL 0.63
0
#BPMCHANGE 216.26
#SCROLL 0.62
0
#BPMCHANGE 180.87
#SCROLL 0.75
0,
#MEASURE 6/4
#BPMCHANGE 238.7
#SCROLL 0.56
0
#BPMCHANGE 232.53
#SCROLL 0.58
0
#BPMCHANGE 212.99
#SCROLL 0.63
0
#BPMCHANGE 181.47
#SCROLL 0.74
0
#BPMCHANGE 165.86
#SCROLL 0.81
0
#BPMCHANGE 117.43
#SCROLL 1.15
0,
#MEASURE 1/4
#BPMCHANGE 67.99
#SCROLL 2
8,
#BPMCHANGE 272
#SCROLL 1
#MEASURE 4/4
3,
2,
31,
1,
32,
1,
3,
44,
2,
11,
11,
1110,
11,
1110,
12,
12,
1,
22,
5,
000000000000000000000000000008000000000000000000,
3,
300300000001,
,
100000000001,
,
300300000001,
000000000001,
000000000002,
02,
300300000001,
02,
100000000001,
,
300300000001,
,
100000200001,
001001002000,
7,
0008,
10010000,
2,
10010000,
2,
10010000,
22,
10010010,
01,
10010010,
01,
30010010,
01,
10010010,
000000100005,
,
000000000000000000000000000000000000000008000000,
03,
32,//72
#GOGOSTART
100001000000,
1110,
100001000100,
001000200000,
100100100003,
02,
11,
3330,
100001000000,
1110,
100001000100,
001000200000,
500000000000000000000000000008000000000000000000,
12,
5,
000000000000000000000000000008000000000000000000,
10010000,
1110,
10010010,
01002000,
1212,
1212,
11,
1110,
10010000,
1110,
10010010,
01002000,
500000000000000000000000000008000000000000000000,
1140,
500000000000000000000000000008000000000000000000,
600000000000000000000000000008000000000000000000,//104
#GOGOEND
1101,
1011,
1102,
500000000000000000000000000008000000000000000000,
2202,
2022,
2202,
500000000000000000000000000008000000000000000000,
1201,
2012,
1202,
500000000000000000000000000008000000000000000000,
10030000,
10030000,
11,
1011,
7,
,
8300,
2220,
5,
,
,
000000000000000000000000000000000000000000000008,
,
,
,
#END
