//TJADB Project
TITLE:Tada Kimi ni Hare -Cover Audio-
TITLEJA:ただ君に晴れ
SUBTITLE:--
SUBTITLEJA:カバー音源
BPM:140
WAVE:Tada Kimi ni Hare (cover).ogg
OFFSET:-2.447
DEMOSTART:57.300 //shinuchi:
20820/13440/5300/3330

COURSE:Oni
LEVEL:5
BALLOON:28
SCOREINIT:970,3490
SCOREDIFF:290
#START
20022022,
20000022,
20022022,
21212022,
20022022,
2222,
22220222,
02222002, //8
1022102010221020,
11221210,
1022102010221020,
1010222020101010,
1022102010221020,
1010202010102011,
1011101011101000,
500000000000000000000000000008000000200000200000, //16
10121012,
11211122,
10121011,
2010201020222020,
10121012,
11212020,
1020202010222020,
0010201022102020, //24
10211022,
1010201022102020,
10211122,
1020102011202020,
10211022,
1010201011202000,
10201033,
03033000, //32
#GOGOSTART
1110102010102020,
1020102010112000,
1011201020221020,
12121441,
1110102010102020,
1020102010221000,
3022203000222030,
000000100000100000100000600000000000000008000000, //40
#GOGOEND
7,
00008120,
3,
0,
0, //45
#END

COURSE:Hard
LEVEL:3
BALLOON:22
SCOREINIT:1100,5700
SCOREDIFF:398
#START
20022020,
2,
20022020,
2220,
20022022,
2220,
20220222,
0, //8
1111,
11112220,
1111,
11221110,
1111,
11112220,
1111,
500000000000000000000000000008000000000000000000, //16
10011011,
1,
10011010,
21212000,
10011011,
10022020,
10110111,
0002, //24
10011022,
20000011,
10022021,
21212011,
10022011,
2222,
10201033,
03033000, //32
#GOGOSTART
10121010,
12121010,
11102220,
10101440,
10121010,
12121210,
30230223,
000000100000100000100000600000000000000008000000, //40
#GOGOEND
7,
08,
3,
0,
0, //45
#END

COURSE:Normal
LEVEL:2
BALLOON:14
SCOREINIT:1940,14630
SCOREDIFF:1660
#START
2,
2,
2,
22,
2,
2,
22,
2, //8
11,
1,
11,
1,
11,
1,
11,
500000000000000000000000000008000000000000000000, //16
11,
1,
22,
2,
11,
1,
11,
1, //24
1011,
1,
11,
1110,
11,
1110,
30003006,
000000000000000000000008000000000000000000000000, //32
#GOGOSTART
1110,
1110,
2222,
500000000000000000000000000008000000000000000000,
1110,
1110,
30030006,
000000000000000000000000000000000000000008000000, //40
#GOGOEND
7,
08,
3,
0,
0, //45
#END

COURSE:Easy
LEVEL:2
BALLOON:14
SCOREINIT:2170,23680
SCOREDIFF:3185
#START
2,
0,
2,
2,
2,
0,
2,
0, //8
11,
1,
11,
1,
31,
1,
1,
500000000000000000000000000008000000000000000000, //16
1,
1,
11,
1,
1,
1,
500000000000000000000000000000000000000000000008,
0, //24
1,
2,
11,
2,
1,
2,
30003006,
000000000000000000000008000000000000000000000000, //32
#GOGOSTART
11,
1,
22,
500000000000000000000000000008000000000000000000,
11,
11,
30000006,
000000000000000000000000000000000000000008000000, //40
#GOGOEND
7,
08,
3,
0,
0, //45
#END
