//TJADB Project
TITLE:Gurenge
TITLEJA:紅蓮華
SUBTITLE:--LiSA/Kimetsu no Yaiba
SUBTITLEJA:「鬼滅の刃」より
BPM:135
WAVE:Gurenge.ogg
OFFSET:-0.779
DEMOSTART:59.871

COURSE:Edit
LEVEL:8
SCOREINIT:770
SCOREDIFF:218
#START
2002002000000000,
2002002000000020,
2002002000002020,
00000202,
20000202,
20000202,
#GOGOSTART
1102201102201122,
1102201102201122,
1102201102201122,
1102201102201122,
#GOGOEND
1011201100112010,
1011201100221020,
1011201100112010,
1011201100221020,
1012101100112010,
1012102220222010,
1012101100112010,
1011022022112010,
1011201101112022,
1022202210220210,
1011201101112022,
1022202210220210,
1011201101112022,
1022202210211020,
100000000500000000000000000008000000200000100000,
1021021012112000,
2002002010000000,
2002002010000020,
2002002010002020,
2002002010200020,
1000100010201022,
1000100010201022,
11111111,
1334,
#GOGOSTART
3011201110210022,
1011201110210022,
1021002210211020,
1011201220112212,
1011201110112012,
1011201110112012,
500000000000000000000000000000000000000000000008,
0334,
3011201110210022,
1011201110210012,
1003003000212050,
000008000000400000000000400000000400000000400000,
3011201110102212,
#GOGOEND
1000002120002000,
#GOGOSTART
500000000000000000000000000000000000000000000008,
#GOGOEND
#END

COURSE:Oni
LEVEL:6
SCOREINIT:950
SCOREDIFF:290
#START
2002002000000000,
2002002000000020,
2002002000002020,
20000202,
20000202,
20000101,
#GOGOSTART
1002001001102220,
1002001001102220,
1002001001102220,
1001001001002222,
#GOGOEND
2002002000001000,
2002002010111010,
1001001000002000,
2010110100102020,
2002002000001000,
2000002220222020,
1001002000002020,
1001002020002010,
1001002002001002,
0020202020020010,
1001002000101000,
1020202020020010,
1002001000102010,
00111120,
1001000000000020,
1021021011102000,
2002002000000000,
2002002000000020,
2002002000002020,
20000101,
10101212,
10101212,
600000000000000000000000000000000000000008000000,
2222200000002000,
#GOGOSTART
1011102010110011,
1011102010110011,
1011001110112020,
3000300030010011,
11211120,
11211120,
3003003003002220,
3003003003002222,
1011102010110011,
1011102010110010,
2201102201102020,
1000200010010010,
1000201010102220,
#GOGOEND
30022020,
#GOGOSTART
500000000000000000000000000000000000000000000008,
#GOGOEND
0,
#END

COURSE:Hard
LEVEL:3
SCOREINIT:1360
SCOREDIFF:580
#START
20020000,
20020000,
20020000,
2,
2,
2,
#GOGOSTART
5,
000000080000,
1001001001000000,
1001001001000000,
#GOGOEND
1002,
1022,
1002,
1022,
1002,
1022,
1,
1020,
1001001000001000,
20022000,
1001001000001000,
20022000,
1001001000001000,
10001110,
1001000000000000,
500000080000,
20020000,
20020000,
20020000,
2,
10101012,
10101012,
600008,
0002,
#GOGOSTART
1010100010110000,
1010100010110000,
1011000010102020,
3330,
10201120,
10201120,
600000000000000008000000,
0112,
1010100010110000,
1010100010110000,
2002002000101000,
1110,
10201120,
#GOGOEND
30022020,
#GOGOSTART
500000000000000000000008,
#GOGOEND
0,
#END

COURSE:Normal
LEVEL:2
BALLOON:6
SCOREINIT:
SCOREDIFF:
#START
2,
2,
2,
2,
2,
2,
#GOGOSTART
5,
000000080000,
10010000,
10010000,
#GOGOEND
1,
1,
1,
1010,
1,
1,
1,
1010,
1,
2,
1,
2,
1,
1010,
1,
500000080000,
2,
2,
2,
2,
1111,
1111,
600008,
,
#GOGOSTART
1110,
1110,
1011,
3330,
1210,
1210,
600000000000000008000000,
0222,
1110,
1110,
70000800,
1210,
1110,
#GOGOEND
3,
#GOGOSTART
500000000000000000000008,
#GOGOEND
0,
#END

COURSE:Easy
LEVEL:2
BALLOON:4
SCOREINIT:
SCOREDIFF:
#START
2,
2,
2,
2,
2,
2,
#GOGOSTART
5,
000000080000,
1,
1,
#GOGOEND
1,
,
1,
1,
1,
,
2,
2,
1,
2,
1,
2,
1,
1,
1,
500000080000,
2,
2,
2,
2,
1010,
1010,
600008,
,
#GOGOSTART
1010,
1010,
1,
3,
1,
1010,
600000000000000008000000,
,
1010,
1010,
70000800,
2,
1010,
#GOGOEND
3,
#GOGOSTART
500000000000000000000008,
#GOGOEND
0,
#END
