//TJADB Project
TITLE:Gudetama Put Your Hands Up
TITLEJA:ぐでたまぷちょへんざ
SUBTITLE:--Gudetama/Gudetama
BPM:182
WAVE:Gudetama Put Your Hands Up.ogg
OFFSET:-1.412
DEMOSTART:6.682

COURSE:Oni
LEVEL:4
BALLOON:77
SCOREINIT:680
SCOREDIFF:188
#START
1212,
11201120,
1111,
3332,
#GOGOSTART
11211121,
11210220,
11221122,
11210220,
32230220,
32230220,
22112211,
01212030,
#GOGOEND
22,
22,
22,
22,
11121112,
12121020,
11121112,
12121020,
11221122,
12121020,
22112211,
22222000,
0212,
22,
0212,
22,
10201120,
10201122,
31,
1110,
#GOGOSTART
11211121,
11110220,
11221122,
500000000000000000000000000008000000000000000000,
32230220,
32230220,
22112211,
02121040,
11211121,
11210220,
11221122,
11210220,
32230220,
32230220,
11221122,
01212030,
#GOGOEND
10201120,
10201212,
10201120,
22222000,
7,
,
,
,
,
,
0008,
11104000,
#GOGOSTART
11211121,
11210220,
11221122,
11210220,
32230220,
32230220,
11221122,
01212030,
#GOGOEND
#BPMCHANGE 176
#SCROLL 1.03
2
#BPMCHANGE 169
#SCROLL 1.07
2,
#BPMCHANGE 160
#SCROLL 1.13
2
#BPMCHANGE 152
#SCROLL 1.19
2,
#BPMCHANGE 145
#SCROLL 1.25
2
#BPMCHANGE 137
#SCROLL 1.32
2,
#MEASURE 6/4
#BPMCHANGE 129.5
#SCROLL 1.4
202220000000,
#END

COURSE:Hard
LEVEL:3
BALLOON:16,12,12,66,16
SCOREINIT:1160
SCOREDIFF:350
#START
1212,
1212,
500000000000000000000000000000000000000000000008,
,//4
#GOGOSTART
1212,
10210000,
1212,
10210000,
30030000,
30030000,
9,
09,//12
#GOGOEND
8,
,
,
,
10101110,
1110,
10101110,
1110,
10101110,
1110,
11101110,
2220,
21,
2220,
21,
22,
11,
1110,
11,
1,//32
#GOGOSTART
1111,
10110000,
1111,
500000000000000000000000000008000000000000000000,
30030000,
30030000,
7,
08,
1212,
10210000,
1212,
10210000,
30030000,
30030000,
7,
08,//48
#GOGOEND
12,
12,
12,
1,
7,
,
,
,
,
,
,
08,//60
#GOGOSTART
1212,
10210000,
1212,
10210000,
30030000,
30030000,
9,
09,//68
#BPMCHANGE 174.571
#SCROLL 1.0426
#GOGOEND
8
#BPMCHANGE 167.143
#SCROLL 1.0889
0,
#BPMCHANGE 159.714
#SCROLL 1.1395
0
#BPMCHANGE 152.286
#SCROLL 1.1951
0,
#BPMCHANGE 144.857
#SCROLL 1.2564
2
#BPMCHANGE 137.429
#SCROLL 1.3243
2,
#BPMCHANGE 130
#SCROLL 1.4
2,
#END

COURSE:Normal
LEVEL:1
BALLOON:12,8,8,55,12
#START
11,
1,
500000000000000000000000000000000000000000000008,
,//4
#GOGOSTART
11,
1,
11,
1,
3,
3,
9,
09,//12
#GOGOEND
8,
,
,
,
1,
1,
1,
1,
5,
000000000000000000000008000000000000000000000000,
1,
1,
2,
22,
2,
22,
1,
11,
3,
,//32
#GOGOSTART
11,
1,
11,
1,
3,
3,
7,
08,
11,
1,
11,
1,
3,
3,
7,
08,//48
#GOGOEND
11,
11,
11,
1,
7,
,
,
,
,
,
,
08,//60
#GOGOSTART
11,
1,
11,
1,
3,
3,
9,
09,//68
#BPMCHANGE 174.571
#SCROLL 1.0426
#GOGOEND
8
#BPMCHANGE 167.143
#SCROLL 1.0889
0,
#BPMCHANGE 159.714
#SCROLL 1.1395
0
#BPMCHANGE 152.286
#SCROLL 1.1951
0,
#BPMCHANGE 144.857
#SCROLL 1.2564
5
#BPMCHANGE 137.429
#SCROLL 1.3243
0,
#BPMCHANGE 130
#SCROLL 1.4
000000000000000008000000000000000000000000000000,
#END

COURSE:Easy
LEVEL:1
BALLOON:8,5,5,44,8
#START
1,
1,
500000000000000000000000000000000000000000000008,
,//4
#GOGOSTART
1,
1,
1,
1,
3,
3,
9,
09,//12
#GOGOEND
8,
,
,
,
1,
,
1,
,
500000000000000000000000000000000000000000000008,
,
1,
,
2,
,
2,
,
1,
1,
3,
,//32
#GOGOSTART
1,
1,
1,
1,
3,
3,
7,
08,
1,
1,
1,
1,
3,
3,
7,
08,//48
#GOGOEND
1,
1,
1,
,
7,
,
,
,
,
,
,
08,//60
#GOGOSTART
1,
1,
1,
1,
3,
3,
9,
09,//68
#BPMCHANGE 174.571
#SCROLL 1.0426
#GOGOEND
8
#BPMCHANGE 167.143
#SCROLL 1.0889
0,
#BPMCHANGE 159.714
#SCROLL 1.1395
0
#BPMCHANGE 152.286
#SCROLL 1.1951
0,
#BPMCHANGE 144.857
#SCROLL 1.2564
5
#BPMCHANGE 137.429
#SCROLL 1.3243
0,
#BPMCHANGE 130
#SCROLL 1.4
000000000000000008000000000000000000000000000000,
#END
