//TJADB Project
TITLE:Concerto in F -Third Movement-
TITLEJA:ヘ調の協奏曲 第3楽章
SUBTITLE:--George Gershwin
SUBTITLEJA:ガーシュウィン
WAVE:Concerto in F -Third Movement-.ogg
BPM:141.684736506583
OFFSET:-1.929
DEMOSTART:18.214

COURSE:Oni
LEVEL:9
BALLOON:28,30
SCOREINIT:420
SCOREDIFF:100
#START
#SCROLL 0.98
#GOGOSTART
100000200200200000200200200000200200200000101010,
#BPMCHANGE 139.580841475614
#SCROLL 1
1022202220222012,
#BPMCHANGE 138.893891465865
1020112010201120,
#BPMCHANGE 142.400983362595
#SCROLL 0.98
#MEASURE 3/4
101020211010,
#BPMCHANGE 140.041824299793
#SCROLL 1
202110102012,
#BPMCHANGE 140.274612157384
#MEASURE 4/4
100000200200000000200200000000200200000000202020,
#BPMCHANGE 139.927520823049
100000100100100000100100100000100100100000101010,
1011101110111012,
#BPMCHANGE 138.891968860329
1011201220122220,
#BPMCHANGE 140.144531108225
0022112210221221,
#BPMCHANGE 141.463255400597
100000200200200000200200200000200200200000101010,
#BPMCHANGE 140
1022202220222012,
1020122010201220,
#MEASURE 3/4
101120212110,
101120212110,
#MEASURE 4/4
100000200200000000200200000000200200000000202020,
100000100100100000100100100000100100100000101010,
1011101110111012,
1011201220122220,
#BPMCHANGE 138.358384789007
0022112210221221,
#BPMCHANGE 141.681043883253
#SCROLL 0.98
1000200020002202,
#BPMCHANGE 140
#SCROLL 1
#MEASURE 2/4
12,
#MEASURE 4/4
2000100000001121,
#MEASURE 2/4
12,
#MEASURE 4/4
2000100010002202,//25
#GOGOEND
#MEASURE 3/4
1,
,
,
#BPMCHANGE 137.64737169251
#MEASURE 4/4
10221020
#SCROLL 0.98
#BPMCHANGE 140.274612157384
11221122,
#BPMCHANGE 138.211778487504
#SCROLL 1
20221020
#BPMCHANGE 140.976973528969
22112211,
#BPMCHANGE 142.042295359948
#SCROLL 0.99
1021201210222012,
#BPMCHANGE 139.580841475614
#SCROLL 1.01
1021201210222012,
#BPMCHANGE 139.063553775025
1022002010221122,
#BPMCHANGE 140.915053423692
#SCROLL 0.99
0020102210221122,
#BPMCHANGE 139.014252675925
#SCROLL 1
00201022
#SCROLL 1.1
#BPMCHANGE 125.382033382055
10220020,
#BPMCHANGE 110.734296895852
#SCROLL 1.24
7000
#SCROLL 1
#BPMCHANGE 102.526320022922
0000
#BPMCHANGE 101.468658096539
0000
#BPMCHANGE 85.9620204753125
0000,
#BPMCHANGE 81.7246360210169
#MEASURE 2/4
0000
#BPMCHANGE 86.1047510481955
0800,
#BPMCHANGE 138.479402126353
#MEASURE 4/4
0010221010122210,
#BPMCHANGE 140.3303829767
2012121010222220,
0010221010122210,
#BPMCHANGE 138.977860499709
2012122030003000,
#BPMCHANGE 140.101669211793
3333,
#BPMCHANGE 140.669585524829
#SCROLL 0.99
4022020220202202,
#BPMCHANGE 138.67912422048
#SCROLL 1.01
2022020220000000,
#BPMCHANGE 141.669676096552
#SCROLL 0.99
10102121,
#BPMCHANGE 140
#SCROLL 1
10102112,
10102121,
10102112,
10120210,
1120,
#BPMCHANGE 139.406036959584
3333,
#BPMCHANGE 112.332722146769
#SCROLL 1.18
00000000
#SCROLL 1
#BPMCHANGE 88.6639221218323
0000
#BPMCHANGE 57.8587612992581
0000,
#BPMCHANGE 104.160778868864
1
#SCROLL 0.86
#BPMCHANGE 121.896097775608
1
#SCROLL 0.89
#BPMCHANGE 117.631262786716
2
#SCROLL 0.8
#BPMCHANGE 132.372764439731
2,
#BPMCHANGE 139.927520823049
#SCROLL 0.76
1212012210021000,
#BPMCHANGE 131.753044588644
#SCROLL 0.79
1
#SCROLL 0.89
#BPMCHANGE 116.991561570951
1
#SCROLL 1
#BPMCHANGE 102.530172863381
2
#SCROLL 1.2
#BPMCHANGE 86.4224921305592
2,
#BPMCHANGE 101.831855066931
#SCROLL 1
2
#BPMCHANGE 98.8898642394166
1
#SCROLL 1.2
#BPMCHANGE 81.3127406731011
2
#BPMCHANGE 80.3277639171187
1,
#BPMCHANGE 70.0499343382249
#SCROLL 1.28
#MEASURE 2/4
2
#SCROLL 1.05
#BPMCHANGE 79.9612176458126
1,
#BPMCHANGE 140
#SCROLL 1
#MEASURE 4/4
1022202010222020,
1011102212210110,
1022202210222022,
1011101121120220,
1001001020020012,
1001001020020012,//63
#GOGOSTART
1011222211211202,
#BPMCHANGE 138.924775224633
#SCROLL 1.01
1011222211211202,
#BPMCHANGE 140.274612157384
#SCROLL 1
1022120210221202,
#BPMCHANGE 141.087370759545
#MEASURE 3/4
102110102110,
#BPMCHANGE 140
100111100200222200,
102110102110,
100111100200222200,
#MEASURE 4/4
3011222211211202,
1011222211211202,
1011101110111211,
1011101110111211,
1020202012202020,
1222202012121220,
1020202011202020,
1111202012121120,
#MEASURE 3/4
102110102110,
#BPMCHANGE 145.819925321379
#SCROLL 1.25
3333,
#BPMCHANGE 148.395697941231
#SCROLL 1.5
102210102210,
#BPMCHANGE 151.859363366887
#SCROLL 1.75
3333,
#BPMCHANGE 152.959627790543
#SCROLL 2
300222200300222200,
#BPMCHANGE 157.331083463423
300222200300222200,
#BPMCHANGE 127.00012719278
#SCROLL 2.25
412,
#SCROLL 1.75
121,
#SCROLL 1.5
#MEASURE 2/4
21,
#SCROLL 1.25
#MEASURE 4/4
36,
000000000000000000000008000000000000000000000000,
#BPMCHANGE 126.548246227349
600000000000000000000000000000000008000000000000,
#BPMCHANGE 126.999593135687
7,
#SCROLL 1
0,
#MEASURE 6/4
80000000
#SCROLL 2.5
#BPMCHANGE 125.529982455679
0000000060000000,
#MEASURE 4/4
000000000000000000000000000000000008000000000000,//94
#SCROLL 6.5
#GOGOEND
3,
#SCROLL 1
,
,
#END

COURSE:Hard
LEVEL:7
BALLOON:20,25
#START
#SCROLL 0.98
#GOGOSTART
1000200020001011,
#BPMCHANGE 139.580841475614
#SCROLL 1
1000200020001011,
#BPMCHANGE 138.893891465865
12121212,
#BPMCHANGE 142.400983362595
#SCROLL 0.98
#MEASURE 3/4
112011,
#BPMCHANGE 140.041824299793
#SCROLL 1
201121,
#BPMCHANGE 140.274612157384
#MEASURE 4/4
1,
#BPMCHANGE 139.927520823049
1000200020001011,
1000200020001011,
#BPMCHANGE 138.891968860329
12221222,
#BPMCHANGE 140.144531108225
0020102010201011,
#BPMCHANGE 141.463255400597
1000200020001011,
#BPMCHANGE 140
1000200020001011,
12121212,
#MEASURE 3/4
112011,
201121,
#MEASURE 4/4
1,
1000200020001011,
1000200020001011,
12221222,
#BPMCHANGE 138.358384789007
0020102010201011,
#BPMCHANGE 141.681043883253
#SCROLL 0.98
1000200020001101,
#BPMCHANGE 140
#SCROLL 1
#MEASURE 2/4
12,
#MEASURE 4/4
1200,
#MEASURE 2/4
12,
#MEASURE 4/4
2000100010002202,//25
#GOGOEND
#MEASURE 3/4
2,
,
,
#BPMCHANGE 137.64737169251
#MEASURE 4/4
1212
#SCROLL 0.98
#BPMCHANGE 140.274612157384
2121,
#BPMCHANGE 138.211778487504
#SCROLL 1
1212
#BPMCHANGE 140.976973528969
2121,
#BPMCHANGE 142.042295359948
#SCROLL 0.99
1000200020002011,
#BPMCHANGE 139.580841475614
#SCROLL 1.01
1000200020002011,
#BPMCHANGE 139.063553775025
1020102000201022,
#BPMCHANGE 140.915053423692
#SCROLL 0.99
0020102000201022,
#BPMCHANGE 139.014252675925
#SCROLL 1
0212
#SCROLL 1.1
#BPMCHANGE 125.382033382055
0211,
#BPMCHANGE 110.734296895852
#SCROLL 1.24
7000
#SCROLL 1
#BPMCHANGE 102.526320022922
0000
#BPMCHANGE 101.468658096539
0000
#BPMCHANGE 85.9620204753125
0000,
#BPMCHANGE 81.7246360210169
#MEASURE 2/4
0000
#BPMCHANGE 86.1047510481955
0800,
#BPMCHANGE 138.479402126353
#MEASURE 4/4
0010001000101110,
#BPMCHANGE 140.3303829767
1110001000111110,
0010001000111011,
#BPMCHANGE 138.977860499709
1033,
#BPMCHANGE 140.101669211793
3333,
#BPMCHANGE 140.669585524829
#SCROLL 0.99
3000200020002011,
#BPMCHANGE 138.67912422048
#SCROLL 1.01
1220,
#BPMCHANGE 141.669676096552
#SCROLL 0.99
1000100020222000,
#BPMCHANGE 140
#SCROLL 1
1120,
2000200010111000,
2210,
1000101020222000,
1120,
#BPMCHANGE 139.406036959584
3333,
#BPMCHANGE 112.332722146769
#SCROLL 1.18
00000000
#SCROLL 1
#BPMCHANGE 88.6639221218323
0000
#BPMCHANGE 57.8587612992581
0000,
#BPMCHANGE 104.160778868864
1
#SCROLL 0.86
#BPMCHANGE 121.896097775608
1
#SCROLL 0.89
#BPMCHANGE 117.631262786716
2
#SCROLL 0.8
#BPMCHANGE 132.372764439731
2,
#BPMCHANGE 139.927520823049
#SCROLL 0.76
1,
#BPMCHANGE 131.753044588644
#SCROLL 0.79
1
#SCROLL 0.89
#BPMCHANGE 116.991561570951
1
#SCROLL 1
#BPMCHANGE 102.530172863381
2
#SCROLL 1.2
#BPMCHANGE 86.4224921305592
2,
#BPMCHANGE 101.831855066931
#SCROLL 1
2
#BPMCHANGE 98.8898642394166
1
#SCROLL 1.2
#BPMCHANGE 81.3127406731011
2
#BPMCHANGE 80.3277639171187
1,
#BPMCHANGE 70.0499343382249
#SCROLL 1.28
#MEASURE 2/4
2
#SCROLL 1.05
#BPMCHANGE 79.9612176458126
1,
#BPMCHANGE 140
#SCROLL 1
#MEASURE 4/4
12221220,
1011100010000000,
12221220,
2022200020000000,
1001001020020020,
1001001020020020,//63
#GOGOSTART
1011101110111000,
#BPMCHANGE 138.924775224633
#SCROLL 1.01
1011101110111000,
#BPMCHANGE 140.274612157384
#SCROLL 1
12121212,
#BPMCHANGE 141.087370759545
#MEASURE 3/4
12,
#BPMCHANGE 140
1122,
12,
1122,
#MEASURE 4/4
3011101110111000,
3011101110111000,
12121220,
12121220,
10201120,
12201122,
10201120,
12201122,
#MEASURE 3/4
11,
#BPMCHANGE 145.819925321379
#SCROLL 1.25
500000000000000000000000000008000000000000000000,
#BPMCHANGE 148.395697941231
#SCROLL 1.5
11,
#BPMCHANGE 151.859363366887
#SCROLL 1.75
500000000000000000000000000008000000000000000000,
#BPMCHANGE 152.959627790543
#SCROLL 2
33,
#BPMCHANGE 157.331083463423
33,
#BPMCHANGE 127.00012719278
#SCROLL 2.25
412,
#SCROLL 1.75
121,
#SCROLL 1.5
#MEASURE 2/4
21,
#SCROLL 1.25
#MEASURE 4/4
36,
000000000000000000000008000000000000000000000000,
#BPMCHANGE 126.548246227349
600000000000000000000000000000000008000000000000,
#BPMCHANGE 126.999593135687
9,
#SCROLL 1
09,
#MEASURE 6/4
80000000
#SCROLL 2.5
#BPMCHANGE 125.529982455679
0000000060000000,
#MEASURE 4/4
000000000000000000000000000000000008000000000000,//94
#SCROLL 6.5
#GOGOEND
3,
#SCROLL 1
,
,
#END

COURSE:Normal
LEVEL:5
BALLOON:18,22
#START
#SCROLL 0.98
#GOGOSTART
1,
#BPMCHANGE 139.580841475614
#SCROLL 1
1,
#BPMCHANGE 138.893891465865
11101110,
#BPMCHANGE 142.400983362595
#SCROLL 0.98
#MEASURE 3/4
101,
#BPMCHANGE 140.041824299793
#SCROLL 1
001110,
#BPMCHANGE 140.274612157384
#MEASURE 4/4
1,
#BPMCHANGE 139.927520823049
1,
1,
#BPMCHANGE 138.891968860329
2222,
#BPMCHANGE 140.144531108225
500000000000000000000000000000000008000000000000,
#BPMCHANGE 141.463255400597
1,
#BPMCHANGE 140
1,
11101110,
#MEASURE 3/4
101,
001110,
#MEASURE 4/4
1,
1,
1,
2222,
#BPMCHANGE 138.358384789007
500000000000000000000000000000000008000000000000,
#BPMCHANGE 141.681043883253
#SCROLL 0.98
1110,
#BPMCHANGE 140
#SCROLL 1
#MEASURE 2/4
1,
#MEASURE 4/4
1,
#MEASURE 2/4
11,
#MEASURE 4/4
11,//25
#GOGOEND
#MEASURE 3/4
3,
,
,
#BPMCHANGE 137.64737169251
#MEASURE 4/4
1110
#SCROLL 0.98
#BPMCHANGE 140.274612157384
2220,
#BPMCHANGE 138.211778487504
#SCROLL 1
1110
#BPMCHANGE 140.976973528969
2220,
#BPMCHANGE 142.042295359948
#SCROLL 0.99
1,
#BPMCHANGE 139.580841475614
#SCROLL 1.01
1,
#BPMCHANGE 139.063553775025
1122,
#BPMCHANGE 140.915053423692
#SCROLL 0.99
1122,
#BPMCHANGE 139.014252675925
#SCROLL 1
1010
#SCROLL 1.1
#BPMCHANGE 125.382033382055
1011,
#BPMCHANGE 110.734296895852
#SCROLL 1.24
7000
#SCROLL 1
#BPMCHANGE 102.526320022922
0000
#BPMCHANGE 101.468658096539
0000
#BPMCHANGE 85.9620204753125
0000,
#BPMCHANGE 81.7246360210169
#MEASURE 2/4
0000
#BPMCHANGE 86.1047510481955
0800,
#BPMCHANGE 138.479402126353
#MEASURE 4/4
01010111,
#BPMCHANGE 140.3303829767
01010222,
01010111,
#BPMCHANGE 138.977860499709
05,
#BPMCHANGE 140.101669211793
000000000000000000000000000000000000000000000008,
#BPMCHANGE 140.669585524829
#SCROLL 0.99
,
#BPMCHANGE 138.67912422048
#SCROLL 1.01
1,
#BPMCHANGE 141.669676096552
#SCROLL 0.99
1122,
#BPMCHANGE 140
#SCROLL 1
1120,
1122,
1120,
1120,
1120,
#BPMCHANGE 139.406036959584
3333,
#BPMCHANGE 112.332722146769
#SCROLL 1.18
00000000
#SCROLL 1
#BPMCHANGE 88.6639221218323
0000
#BPMCHANGE 57.8587612992581
0000,
#BPMCHANGE 104.160778868864
1
#SCROLL 0.86
#BPMCHANGE 121.896097775608
1
#SCROLL 0.89
#BPMCHANGE 117.631262786716
2
#SCROLL 0.8
#BPMCHANGE 132.372764439731
2,
#BPMCHANGE 139.927520823049
#SCROLL 0.76
1,
#BPMCHANGE 131.753044588644
#SCROLL 0.79
1
#SCROLL 0.89
#BPMCHANGE 116.991561570951
1
#SCROLL 1
#BPMCHANGE 102.530172863381
2
#SCROLL 1.2
#BPMCHANGE 86.4224921305592
2,
#BPMCHANGE 101.831855066931
#SCROLL 1
1
#BPMCHANGE 98.8898642394166
0
#SCROLL 1.2
#BPMCHANGE 81.3127406731011
0
#BPMCHANGE 80.3277639171187
0,
#BPMCHANGE 70.0499343382249
#SCROLL 1.28
#MEASURE 2/4
0
#SCROLL 1.05
#BPMCHANGE 79.9612176458126
0,
#BPMCHANGE 140
#SCROLL 1
#MEASURE 4/4
11101110,
1110,
22202220,
2220,
12,
12,//63
#GOGOSTART
300000600000000000000000000000000008000000000000,
#BPMCHANGE 138.924775224633
#SCROLL 1.01
300000600000000000000000000000000008000000000000,
#BPMCHANGE 140.274612157384
#SCROLL 1
11101110,
#BPMCHANGE 141.087370759545
#MEASURE 3/4
12,
#BPMCHANGE 140
1120,
12,
1120,
#MEASURE 4/4
300000600000000000000000000008000000000000000000,
300000600000000000000000000008000000000000000000,
11101020,
11101020,
11,
11102220,
11,
11102220,
#MEASURE 3/4
11,
#BPMCHANGE 145.819925321379
#SCROLL 1.25
500000000000000000000000000008000000000000000000,
#BPMCHANGE 148.395697941231
#SCROLL 1.5
11,
#BPMCHANGE 151.859363366887
#SCROLL 1.75
500000000000000000000000000008000000000000000000,
#BPMCHANGE 152.959627790543
#SCROLL 2
33,
#BPMCHANGE 157.331083463423
33,
#BPMCHANGE 127.00012719278
#SCROLL 2.25
4,
#SCROLL 1.75
,
#SCROLL 1.5
#MEASURE 2/4
,
#SCROLL 1.25
#MEASURE 4/4
36,
000000000000000000000008000000000000000000000000,
#BPMCHANGE 126.548246227349
600000000000000000000000000000000008000000000000,
#BPMCHANGE 126.999593135687
9,
#SCROLL 1
09,
#MEASURE 6/4
80000000
#SCROLL 2.5
#BPMCHANGE 125.529982455679
0000000060000000,
#MEASURE 4/4
000000000000000000000000000000000008000000000000,//94
#SCROLL 3.5
#GOGOEND
3,
#SCROLL 1
,
,
#END

COURSE:Easy
LEVEL:4
BALLOON:10,17
#START
#SCROLL 0.98
#GOGOSTART
1,
#BPMCHANGE 139.580841475614
#SCROLL 1
1,
#BPMCHANGE 138.893891465865
1110,
#BPMCHANGE 142.400983362595
#SCROLL 0.98
#MEASURE 3/4
101,
#BPMCHANGE 140.041824299793
#SCROLL 1
010,
#BPMCHANGE 140.274612157384
#MEASURE 4/4
1,
#BPMCHANGE 139.927520823049
1,
1,
#BPMCHANGE 138.891968860329
2220,
#BPMCHANGE 140.144531108225
500000000000000000000000000008000000000000000000,
#BPMCHANGE 141.463255400597
1,
#BPMCHANGE 140
1,
1110,
#MEASURE 3/4
101,
010,
#MEASURE 4/4
1,
1,
1,
2220,
#BPMCHANGE 138.358384789007
500000000000000000000000000008000000000000000000,
#BPMCHANGE 141.681043883253
#SCROLL 0.98
1,
#BPMCHANGE 140
#SCROLL 1
#MEASURE 2/4
1,
#MEASURE 4/4
1,
#MEASURE 2/4
1,
#MEASURE 4/4
1,//25
#GOGOEND
#MEASURE 3/4
3,
,
,
#BPMCHANGE 137.64737169251
#MEASURE 4/4
11
#SCROLL 0.98
#BPMCHANGE 140.274612157384
00,
#BPMCHANGE 138.211778487504
#SCROLL 1
11
#BPMCHANGE 140.976973528969
00,
#BPMCHANGE 142.042295359948
#SCROLL 0.99
1,
#BPMCHANGE 139.580841475614
#SCROLL 1.01
1,
#BPMCHANGE 139.063553775025
1110,
#BPMCHANGE 140.915053423692
#SCROLL 0.99
1110,
#BPMCHANGE 139.014252675925
#SCROLL 1
1
#SCROLL 1.1
#BPMCHANGE 125.382033382055
1,
#BPMCHANGE 110.734296895852
#SCROLL 1.24
7000
#SCROLL 1
#BPMCHANGE 102.526320022922
0000
#BPMCHANGE 101.468658096539
0000
#BPMCHANGE 85.9620204753125
0000,
#BPMCHANGE 81.7246360210169
#MEASURE 2/4
0000
#BPMCHANGE 86.1047510481955
0800,
#BPMCHANGE 138.479402126353
#MEASURE 4/4
01010100,
#BPMCHANGE 140.3303829767
01010100,
01010101,
#BPMCHANGE 138.977860499709
05,
#BPMCHANGE 140.101669211793
000000000000000000000000000000000000000000000008,
#BPMCHANGE 140.669585524829
#SCROLL 0.99
,
#BPMCHANGE 138.67912422048
#SCROLL 1.01
1,
#BPMCHANGE 141.669676096552
#SCROLL 0.99
1100,
#BPMCHANGE 140
#SCROLL 1
1100,
2200,
2200,
11,
1110,
#BPMCHANGE 139.406036959584
3333,
#BPMCHANGE 112.332722146769
#SCROLL 1.18
00000000
#SCROLL 1
#BPMCHANGE 88.6639221218323
0000
#BPMCHANGE 57.8587612992581
0000,
#BPMCHANGE 104.160778868864
1
#SCROLL 0.86
#BPMCHANGE 121.896097775608
1
#SCROLL 0.89
#BPMCHANGE 117.631262786716
1
#SCROLL 0.8
#BPMCHANGE 132.372764439731
0,
#BPMCHANGE 139.927520823049
#SCROLL 0.76
1,
#BPMCHANGE 131.753044588644
#SCROLL 0.79
1
#SCROLL 0.89
#BPMCHANGE 116.991561570951
1
#SCROLL 1
#BPMCHANGE 102.530172863381
1
#SCROLL 1.2
#BPMCHANGE 86.4224921305592
0,
#BPMCHANGE 101.831855066931
#SCROLL 1
1
#BPMCHANGE 98.8898642394166
0
#SCROLL 1.2
#BPMCHANGE 81.3127406731011
0
#BPMCHANGE 80.3277639171187
0,
#BPMCHANGE 70.0499343382249
#SCROLL 1.28
#MEASURE 2/4
0
#SCROLL 1.05
#BPMCHANGE 79.9612176458126
0,
#BPMCHANGE 140
#SCROLL 1
#MEASURE 4/4
11,
1110,
11,
1110,
22,
22,//63
#GOGOSTART
34,
#BPMCHANGE 138.924775224633
#SCROLL 1.01
34,
#BPMCHANGE 140.274612157384
#SCROLL 1
1111,
#BPMCHANGE 141.087370759545
#MEASURE 3/4
11,
#BPMCHANGE 140
12,
11,
12,
#MEASURE 4/4
34,
34,
1110,
1110,
11,
1110,
11,
1110,
#MEASURE 3/4
11,
#BPMCHANGE 145.819925321379
#SCROLL 1.25
500000000000000000000008000000000000000000000000,
#BPMCHANGE 148.395697941231
#SCROLL 1.5
11,
#BPMCHANGE 151.859363366887
#SCROLL 1.75
500000000000000000000008000000000000000000000000,
#BPMCHANGE 152.959627790543
#SCROLL 2
33,
#BPMCHANGE 157.331083463423
33,
#BPMCHANGE 127.00012719278
#SCROLL 2.25
4,
#SCROLL 1.75
,
#SCROLL 1.5
#MEASURE 2/4
,
#SCROLL 1.25
#MEASURE 4/4
36,
000000000000000000000008000000000000000000000000,
#BPMCHANGE 126.548246227349
600000000000000000000000000000000008000000000000,
#BPMCHANGE 126.999593135687
9,
#SCROLL 1
09,
#MEASURE 6/4
80000000
#SCROLL 2.5
#BPMCHANGE 125.529982455679
0000000060000000,
#MEASURE 4/4
000000000000000000000000000000000008000000000000,//94
#SCROLL 3.5
#GOGOEND
3,
#SCROLL 1
,
,
#END
