//TJADB Project
TITLE:Tabetemo Tabetemo
TITLEJA:タベテモタベテモ
SUBTITLE:--☆Shoji☆ feat. Honoka♡Erika
SUBTITLEJA:☆しょーじ☆ feat.ほのか♡えりか
BPM:188
WAVE:Tabetemo Tabetemo.ogg
OFFSET:-2.656
DEMOSTART:46.064

COURSE:Oni
LEVEL:8
BALLOON:5,5,5,5,7,7,3,3,5,5,5,5,7,7,32
SCOREINIT:630
SCOREDIFF:138
#START
0303,
101111201002,
102102002000,
102102002000,
1222,
101111201002,
202202000002,
202202000000,
202200200202,
202202222100,
100200101201,
101222101201,
100200101200,
102222202100,
101201100200,
101201100200,
101200100201,
100200101200,
100200100201,
100200101201,
100222101105,
000000000000000000000008000000000000100020002000,
1004,
1004,
11,
1114,
100000001000200000000000500000000008000000000000,
500000000008000000002000100000001000200000000000,
112112112112,
4400,
104102400412,
104102400412,
102102211212,
111222111400,
#GOGOSTART
101201101201,
101101100200,
700000080010000000200000,
700000080010000020200000,
101201101202,
111101000202,
101200101101,
1114,
101201101201,
101101100200,
700000080010000000200000,
700000080010000000200000,
101201101202,
122201000122,
100101100101,
100400101200,
7082,
7082,
100402100402,
101101100122,
#GOGOEND
102101102101,
202102202100,
700000008000000000006000000000080000000000000000,
700000008000000000006000000000080000000000000000,
102101002122,
211101001222,
102102102102,
100202122100,
#GOGOSTART
101201101201,
101101100200,
700000800010000000200000,
700000800010000020200000,
101201101202,
111101000202,
101200101101,
1114,
101200101200,
101101100200,
700000800010000000200000,
700000800010000000200000,
101201101202,
122201000122,
100101100101,
100400101200,
7082,
7082,
122122,
101101100122,
#GOGOEND
100111200200,
100111200200,
200111200111,
200111200111,
222111222111,
1,
202,
202,
7,
000000000000000000000000000000000000000000000008,
#END

COURSE:Hard
LEVEL:7
BALLOON:7,7,7,7,20
SCOREINIT:680
SCOREDIFF:175
#START
0303,
000000005000000000000008000000000000100000000000,
100002002000,
100002002000,
1111,
3044,
202202000002,
202202000000,
202200200202,
202202200000,
100200102201,
102201102201,
1212,
102202200100,
102201100200,
102201100200,
102200100201,
100200102200,
100200100201,
100200102201,
100200111105,
000000000000000000000008000000000000000000000000,
1004,
1004,
11,
1114,
000000000000200000000000500000000008000000000000,
500000000008000000002000000000000000200000000000,
1111,
4400,
102000400400,
102000400400,
200200202200,
0004,//34
#GOGOSTART
101100202200,
101101100200,
500000000008000000001000000000000000200000000000,
500000000008000000001000000000000000400000000000,
202200202200,
101101000200,
100200101101,
1114,
101100202200,
101101100200,
500000000008000000001000000000000000200000000000,
500000000008000000001000000000000000400000000000,
202200202200,
101101000200,
1111,
1422,
7082,
7082,
1414,
101101100000,//54
#GOGOEND
100101100100,
200202200200,
000000001000000000006000000000080000000000000000,
000000001000000000006000000000080000000000000000,
101100101100,
202202002200,
101001001001,
100200202200,//62
#GOGOSTART
101100202200,
101101100200,
500000000008000000001000000000000000200000000000,
500000000008000000001000000000000000400000000000,
202200202200,
101101000200,
100200101101,
1114,
101100101100,
202202200200,
500000000008000000001000000000000000200000000000,
500000000008000000001000000000000000400000000000,
202200202200,
101101000200,
1111,
1422,
7082,
78,
1414,
101101100000,//82
#GOGOEND
100101100200,
100101100000,
200111100000,
200111100000,
500000000000000000000000000000000000000000000008,
,
202,
202,
9,
09,
8,
#END

COURSE:Normal
LEVEL:6
BALLOON:5,5,5,5,5,5,5,5,5,5,5,5,5,5,12
SCOREINIT:860,4710
SCOREDIFF:220
#START
0303,
000000005000000008000000000000000000000000000000,
100002002000,
100002002000,
1111,
3044,
200202000000,
200202000000,
2220,
2022,
100200100005,
000000000000000008000000000000000000000000000000,
1215,
000000000000000008000000000000000000000000000000,
101001000200,
101001000200,
1112,
1012,
100000100005,
000000000000000008000000000000000000000000000000,
100000100005,
000000000000000000000008000000000000000000000000,
1004,
1004,
11,
1114,
000000000000100000000000500000000000000800000000,
500000000008000000001000000000000000000000000000,
1111,
4400,
001000300300,
002000400400,
2222,
0004,//34
#GOGOSTART
1111,
2220,
78,
78,
2222,
100001000000,
1211,
1114,
1122,
1110,
78,
78,
2222,
100001000000,
1111,
1400,
78,
78,
1313,
1130,//54
#GOGOEND
1111,
2222,
000000001000000000006000000000000008000000000000,
000000001000000000006000000000000008000000000000,
1111,
200002000000,
001001001000,
500000000000000008000000000000000000000000000000,//62
#GOGOSTART
1111,
2220,
78,
78,
2222,
100001000000,
1211,
1114,
1111,
2220,
78,
78,
2222,
100001000000,
1111,
1400,
78,
78,
11,
1110,//82
#GOGOEND
1022,
1220,
2121,
2121,
500000000000000000000000000000000000000000000008,
,
202,
202,
9,
09,
8,
#END

COURSE:Easy
LEVEL:3
BALLOON:4,4,4,4,4,4,10,4,4,4,4,4,4,10
SCOREINIT:680,7150
SCOREDIFF:140
#START
0303,
000000005000000000000008000000000000000000000000,
100002000000,
100002000000,
1033,
3,
2200,
2200,
1110,
1011,
100000100005,
000000000000000008000000000000000000000000000000,
1115,
000000000000000008000000000000000000000000000000,
100001000000,
100001000000,
1110,
1011,
100000100005,
000000000000000008000000000000000000000000000000,
100000100005,
000000000000000000000008000000000000000000000000,
1,
1,
11,
1110,
000000000000100000000000500000000000000800000000,
500000000008000000001000000000000000000000000000,
11,
4400,
0033,
0044,
2022,
,//34
#GOGOSTART
11,
2220,
78,
78,
22,
500000000000000000000008000000000000000000000000,
1011,
1110,
22,
1110,
78,
78,
22,
500000000000000000000008000000000000000000000000,
1011,
1,
78,
78,
11,
3330,//54
#GOGOEND
1110,
2220,
600000000000000000000000000000000008000000000000,
600000000000000000000000000000000008000000000000,
1110,
100002000000,
7,
8,//62
#GOGOSTART
11,
2220,
78,
78,
22,
500000000000000000000008000000000000000000000000,
1011,
1110,
22,
1110,
78,
78,
22,
500000000000000000000008000000000000000000000000,
1011,
1,
78,
78,
11,
3330,//82
#GOGOEND
12,
12,
22,
22,
500000000000000000000000000000000000000000000008,
,
2,
2,
9,
09,
8,
#END
