//TJADB Project
TITLE:Calamity Fortune
TITLEJA:Calamity Fortune
SUBTITLE:--LeaF/Touhou Onsen Yuugi 5
SUBTITLEJA:東方Projectアレンジ LeaF
BPM:200
WAVE:Calamity Fortune.ogg
OFFSET:-1.328
DEMOSTART:102.128

COURSE:Edit
LEVEL:10
BALLOON:2
SCOREINIT:220
SCOREDIFF:70
#START
1011202101112021,
1020102210201022,
101020121210
#SCROLL 2
2000,
#SCROLL 1
1020102212021020,
#SCROLL 2
30303040600080
#SCROLL 1
11,
1020102210201022,
1020102212021121,
1001101010001010,
#SCROLL 2
404040004000
#SCROLL 1
1122,
1021022011201121,
1021012011201221,
1021022012201222,
100000200100200200100200102020100000100100200200,
1021022011201121,
1021012011201221,
1021022012201120,
1121221012500080,
#SCROLL 0.75
1011201010221010,
2010221210100000,
1011201010211010,
201021121010
#SCROLL 2
2000,
#SCROLL 1.5
#GOGOSTART
1122112212221222,
#GOGOEND
#SCROLL 1
1021022012021012,
1021012011012022,
1021022012021012,
100000200100200200100000200100202020100100200200,
1021022011012012,
1021122110221210,
#SCROLL 1.5
#GOGOSTART
1001102050801010,
#SCROLL 2
404040004000
#SCROLL 1
1111,
#GOGOEND
1020102210201022,
101110101000
#SCROLL 2
2000,
#SCROLL 1
1020102212021020,
2202202210222222,
1020102210201011,
12121210,
#SCROLL 1.5
#GOGOSTART
100100200100200200100200101010200100200200100200,
1021202112021020,
#GOGOEND
#SCROLL 0.5
3000000020020020,
2000000020020020,
2222,
2,
#SCROLL 1
101010100100100100100100200200000200200000200000,
101010100100100100100100200200000200200000200000,
11101010202020001110101020202000,
11101010202010001110101020202000,
1011202101110000,
#GOGOSTART
100100200200100100200200100200200200101010200200,
100100200200100100200200100200200200101020200200,
100100200200100100200200100200200200102020200200,
2211221121112110,
100100200200100100200200100200200200101010200200,
100100200200100100200200100200200200101020200200,
100100200200100100200200100200200200102020200200,
221122112111211
#GOGOEND
0,
#GOGOSTART
100010001000100000100000200000000000100000100000100000100000200000000000100100100000200000
#GOGOEND
000000,
#GOGOSTART
100010001000100000100000200000000000100000100000100000100000200000000000100100100000200000
#GOGOEND
000000,
#GOGOSTART
100010001000100000100000200000000000100000100000100000100000200200200000100000100000200000000000,
100000100000200000000000100010001000200000000000100000100000200200200000100000100000100000
#GOGOEND
000000,
#GOGOSTART
100010001000200000100000200000000000100000100000200000100000200000000000100100100000200000
#GOGOEND
000000,
#GOGOSTART
100010001000200000100000200000000000100000100000200000100000200000000000100100100000200000
#GOGOEND
000000,
#SCROLL 1
#GOGOSTART
100010001000200000100000200000000000100000100000100000100000200200200000100000000000
#SCROLL 2
400000000000,
00004000000040003000111120000000,
#GOGOEND
#SCROLL 1
300000100000100000100122,
102010201000
#SCROLL 2
2000,
#SCROLL 1
300000200100200000100000200000101020102000100000,
10002000100020001000400040001111,
1020102211201222,
1020102211221222,
1020102211201222,
1020122211221222,
#GOGOSTART
10002222100010002020202010002000,
#SCROLL 1.5
3021202112021020,
#GOGOEND
#SCROLL 1
3010200011102000,
22222020100000001020100020000000,
10001010222210001020100020001000,
101020121210
#SCROLL 2
2000,
#SCROLL 1
101010100100200100100100200200100200200000000000,
#SCROLL 1.25
101010100100200100100100200200100200200000000000,
#SCROLL 1.5
1110101020000000
#SCROLL 1.75
1110101020000000,
#SCROLL 2
11101010202010101110101020202020,
7080
#SCROLL 1
122112211221,
10
#SCROLL 1.04
1
#SCROLL 1.08
1
#SCROLL 1.13
2
#SCROLL 1.17
1
#SCROLL 1.22
1
#SCROLL 1.27
2
#SCROLL 1.32
1
#SCROLL 1.38
1
#SCROLL 1.43
2
#SCROLL 1.49
1
#SCROLL 1.55
1
#SCROLL 1.61
2
#SCROLL 1.68
1
#SCROLL 1.75
1,
#SCROLL 1.82
20
#SCROLL 1.89
10
#SCROLL 1.97
10
#SCROLL 2.05
20
#SCROLL 2.13
10
#SCROLL 2.22
10
#SCROLL 2.31
20
#SCROLL 2.4
10
#SCROLL 2.5
1111115000008000,
#SCROLL 1.25
#GOGOSTART
3021022010221020,
100100200100000200102020100000100200100000200000,
1021022010221220,
100200200100200200102020100200200100200000000000,
1021022010221020,
100100200100000200102020100000100200100000200000,
1021022010221220,
#SCROLL 2
122020220202202
#GOGOEND
0,
#GOGOSTART
#SCROLL 1.25
3021022210221020,
100100200100000200102020100000100200100000200000,
1021022210221220,
100200200100200200102020100200200100200000000000,
30002010002022201010202010002000,
100100200100000200102020100200100200100000200000,
10002010002022201010202010202000,
#SCROLL 2
10202000200020102011102011102000,
#GOGOEND
#SCROLL 3
#MEASURE 1/32
4,
#SCROLL 4.25
,
#SCROLL 5.5
,
#SCROLL 6.75
,
#SCROLL 8
,
#SCROLL 925
,
#SCROLL 10.5
,
#SCROLL 11.75
,
#MEASURE 3/4
#SCROLL 13
,
#MEASURE 4/4
#SCROLL 0.8
,
#SCROLL 0.7
,
#SCROLL 0.6
,
#SCROLL 0.5
1,
1,
#SCROLL 2
1111111111111111,
11101010111010101111111150000080,
3,
#END

COURSE:Oni
LEVEL:10
BALLOON:2
SCOREINIT:330
SCOREDIFF:70
#START
#BARLINEOFF
,
#BARLINEON
1020102210201022,
101020121210
#SCROLL 2
4000,
#SCROLL 1
1020102212021020,
#SCROLL 2
30303040600080
#SCROLL 1
11,
1020102210201022,
1020102212021121,
1001101010001010,
#SCROLL 2
404040004000
#SCROLL 1
1122,
1021022010201121,
1021022010201121,
1021022010201222,
1021201210001122,
1021022010201121,
1021022010201121,
1021022010201120,
1021201022500080,
#SCROLL 0.75
1010201010211010,
21221100,
1010201010211010,
212211
#SCROLL 2
40,
#SCROLL 1
#GOGOSTART
1122112211221222,
#GOGOEND
1021022012011020,
1021022011012020,
1021022012011020,
1021201021201210,
1021022011012020,
1021122110221020,
#GOGOSTART
1001102030001010,
#SCROLL 2
404040004000
#SCROLL 1
1111,
#GOGOEND
1020102210201022,
101110101000
#SCROLL 2
4000,
#SCROLL 1
1020102212021020,
2202202210222222,
1020102210201011,
1020102010201000,
#GOGOSTART
1111221111112211,
1021202112021020,
#GOGOEND
#SCROLL 0.75
3000000020020020,
2000000020020020,
2222,
2,
#SCROLL 1
1111111122022020,
1111111122022020,
1111200011112000,
1111221011112220,
,
#GOGOSTART
1111222211221122,
1111222211221122,
1111222211221122,
2211221121112110,
1111222211221122,
1111222211221122,
1111222211221122,
221122112111211
#GOGOEND
0,
#GOGOSTART
111120111120112
#GOGOEND
0,
#GOGOSTART
111120111120112
#GOGOEND
0,
#GOGOSTART
1111201111201120,
100100200000101010200000100100200200100100100
#GOGOEND
000,
#GOGOSTART
111120112120112
#GOGOEND
0,
#GOGOSTART
111120112120112
#GOGOEND
0,
#GOGOSTART
11112011212010
#SCROLL 2
40,
04043340,
#GOGOEND
#SCROLL 1
3000100010001012,
102010201000
#SCROLL 2
4000,
#SCROLL 1
300000200200100000200000100000202020100000200000,
1020102010404011,
1020102210201122,
1020102211201122,
1020102210201122,
1020102211221222,
#GOGOSTART
1022101022221020,
3021202112021020,
#GOGOEND
3010200011102000,
2222100012102000,
1011221012102010,
101020121210
#SCROLL 2
4000,
#SCROLL 1
1111111122022000,
1111111122022000,
1111200011112000,
1111221111112222,
7080122112211221,
1011211211211211,
2112112150000080,
#GOGOSTART
3021022010201120,
1021022210201120,
1021022010201220,
200000100100200000102020100000100100200000000000,
1021022010201120,
1021022210201120,
1021022010201220,
#SCROLL 1.5
222020220202202
#GOGOEND
0,
#GOGOSTART
#SCROLL 1
3021022010201120,
1121022210201120,
1021022010201220,
200000100100200000102020100000100100200000000000,
3021021010201120,
1121021210201120,
1021021010201220,
#SCROLL 1.5
2220202202121120,
#GOGOEND
4,
#SCROLL 0.8
,
#SCROLL 0.7
,
#SCROLL 0.6
,
#SCROLL 0.5
1,
1,
#SCROLL 1
1111111111111111,
1111111150000080,
3,
#END

COURSE:Hard
LEVEL:7
BALLOON:21,21,21,10,10,10,24
SCOREINIT:470
SCOREDIFF:105
#START
#BARLINEOFF
,
#BARLINEON
12121212,
10201140,
12121212,
33443000,
12121212,
12121212,
1001101010001010,
22202040,
10201122,
10201122,
10201122,
11212000,
10201122,
10201122,
10201122,
11212100,
10201122,
11221100,
10201122,
11221140,
#GOGOSTART
50000008,
#GOGOEND
10121211,
10121211,
10121212,
11212121,
10121211,
10121211,
#GOGOSTART
1001101010001010,
22202040,
#GOGOEND
12121212,
1011101010004000,
12121212,
50000008,
12121211,
1111,
#GOGOSTART
7,
0008,
#GOGOEND
3000000020020020,
2000000020020020,
2222,
2,
3000000020020020,
3000000020020020,
3232,
30333040,
,
#GOGOSTART
50000008,
50000008,
7,
0008,
50000008,
50000008,
7,
000000000000800
#GOGOEND
0,
#GOGOSTART
101020101020102
#GOGOEND
0,
#GOGOSTART
101020101020102
#GOGOEND
0,
#GOGOSTART
11211212,
102010201010100
#GOGOEND
0,
#GOGOSTART
101020101020102
#GOGOEND
0,
#GOGOSTART
101020101020102
#GOGOEND
0,
#GOGOSTART
11211214,
04044440,
#GOGOEND
30101012,
1114,
10101212,
10101440,
10101012,
10101212,
10101012,
10101212,
#GOGOSTART
50085008,
7008,
#GOGOEND
3212,
1212,
11211121,
1214,
11111020,
11111020,
1110200011102000,
1010101011102000,
00500008,
3333,
3000300060000800,
#GOGOSTART
30121211,
10121211,
1000102010202220,
2000202220202000,
10121211,
10121211,
1000102010202220,
700000000000800
#GOGOEND
0,
#GOGOSTART
30121211,
10121211,
1000102010202220,
2000202220202000,
3000102010201110,
1000102010201110,
1000102010202220,
7008,
#GOGOEND
4,
,
,
,
1,
1,
7,
,
8,
,
,
,
#END

COURSE:Normal
LEVEL:6
BALLOON:5,6,5,14,14,14,6,7,14,6,6,16
SCOREINIT:640
SCOREDIFF:138
#START
#BARLINEOFF
,
#BARLINEON
1111,
,
1111,
5008,
1111,
1111,
7008,
22202000,
10102011,
10102011,
10102011,
1120,
10102011,
10102011,
10102011,
1120,
11,
2210,
11,
2210,
#GOGOSTART
5008,
#GOGOEND
10102011,
10102011,
10102011,
1120,
10102011,
10102011,
#GOGOSTART
7008,
22202000,
#GOGOEND
1111,
7008,
1111,
5008,
10101011,
1111,
#GOGOSTART
7,
0008,
#GOGOEND
2,
2,
2222,
2,
32,
32,
33,
30333030,
,
#GOGOSTART
5008,
5008,
7,
0008,
5008,
5008,
7,
000000000000800
#GOGOEND
0,
#GOGOSTART
101010001000100
#GOGOEND
0,
#GOGOSTART
101010001000100
#GOGOEND
0,
#GOGOSTART
22202020,
700000000000800
#GOGOEND
0,
#GOGOSTART
101010001000100
#GOGOEND
0,
#GOGOSTART
101010001000100
#GOGOEND
0,
#SCROLL 1
#GOGOSTART
#MEASURE 4/4
22202027,
0008,
#GOGOEND
1111,
2220,
1111,
2220,
10101011,
10101011,
10101011,
10101011,
#GOGOSTART
7,
0008,
#GOGOEND
11,
11,
1222,
2,
3330,
3330,
33,
6,
8,
3333,
3340,
#GOGOSTART
10102220,
10102220,
10102220,
20201120,
10102220,
10102220,
10102220,
700000000000800
#GOGOEND
0,
#GOGOSTART
10102220,
10102220,
10102220,
20201120,
10102220,
10102220,
10102220,
7008,
#GOGOEND
4,
,
,
,
1,
1,
7,
,
8,
,
,
,
#END

COURSE:Easy
LEVEL:4
BALLOON:5,11,12,11,5,5,11,5,7,14
SCOREINIT:490
SCOREDIFF:95
#START
#BARLINEOFF
,
#BARLINEON
1111,
,
1111,
5008,
1111,
1111,
,
4440,
1011,
1011,
1011,
1110,
1011,
1011,
1011,
50000800,
1,
2,
1,
2,
#GOGOSTART
50000800,
#GOGOEND
1011,
1011,
1011,
1110,
1011,
1011,
#GOGOSTART
7008,
4440,
#GOGOEND
1111,
,
1111,
5008,
1111,
1111,
#GOGOSTART
7,
0008,
#GOGOEND
2,
2,
22,
2,
3,
3,
33,
3333,
,
#GOGOSTART
5008,
5008,
7,
0008,
5008,
5008,
7,
000000000000800
#GOGOEND
0,
#GOGOSTART
100010001000100
#GOGOEND
0,
#GOGOSTART
100010001000100
#GOGOEND
0,
#GOGOSTART
1111,
700000000000800
#GOGOEND
0,
#GOGOSTART
100010001000100
#GOGOEND
0,
#GOGOSTART
100010001000100
#GOGOEND
0,
#GOGOSTART
20202027,
0008,
#GOGOEND
1,
2220,
11,
2220,
11,
1011,
11,
1011,
#GOGOSTART
7,
0008,
#GOGOEND
1,
1,
22,
2,
3,
3,
33,
6,
8,
3333,
3330,
#GOGOSTART
1120,
1120,
1122,
1120,
1120,
1120,
1122,
700000000000800
#GOGOEND
0,
#GOGOSTART
1120,
1120,
1122,
1120,
1120,
1120,
1122,
7,
#GOGOEND
8,
,
,
,
1,
1,
7,
,
8,
#END
