//TJADB Project
TITLE:Tenkyuu no Ritsu
TITLEJA:天泣の律
SUBTITLE:--Capchii
SUBTITLEJA:Capchii
BPM:100
WAVE:Tenkyuu no Ritsu.ogg
OFFSET:-2.421
DEMOSTART:88.808

COURSE:Oni
LEVEL:10
SCOREINIT:420
SCOREDIFF:90
#START
10000000100010002000000020002022,
10001000100010002000000020002022,
10000010000020000000100010002011,
100000000000222222222222,
10000000100020001000000010002022,
10002000100020001000000010002022,
100000200000100000200000100000200000100000200000100010001000200020002000100010001000200200200200,
#BPMCHANGE 200
13024013,
000200400000111100400000,
3000101020112210,
201010200000200000100000200200200200100000000000,
000100100100211200100200,
211200100200100000200000,
1000101022112010,
202010100000200000100000200200200200100000000000,
0021212120201020,
100000200100200000100000000000100000202020200000,
3000101020112210,
211200200100202020100000,
000100100100211200100200,
211200100200100000200000,
1000101022112010,
202010100000200000100000200200200200100000000000,
0021212120201020,
1212121210004000,//25
#GOGOSTART
3002102010112212,
1002102011112211,
200200100100202010101010100000000200100000200000,
100000000200200000200000100000000000500008000000,
1002102010112212,
100000000200100000200000202010100100200200100100,
1122111120021020,//32
#GOGOEND
1001001010004000,//33
#GOGOSTART
3002102010112212,
1002102011112211,
200200100100202010101010100000000200100000200000,
100000000200200000200000100000000000500008000000,
1002102010112212,
100000000200100000200000202010100100200200100100,
100100200200101010101010200000000200100000200000,
3004004030004000,//41
#BPMCHANGE 100
#GOGOEND
200000000000000000000222200000000000000000000222,
2,
200000000000000000000222200000000000000000000222,
2,
101010101010101010100100202020202020202020200000,
101010101010202020200200101010101010202020200000,
101010101010101010100100202020202020202020200000,
101010101010202020200200101010101010202020200000,
300000000000000000000000202000000000000000200200200000200200000200200000200000000200000000200000,
20000000221221200000000022222222,
#BPMCHANGE 200
#SCROLL 0.59
1000200012221220,
#SCROLL 0.71
1002102010002000,
#SCROLL 0.84
1111,
#SCROLL 1
400000000200000000200000202020200000300000200000,//55
#GOGOSTART
3021012011221020,
100000200100000100200000101010100100200000200000,
100000200100000100200000202010100000200000100000,
100000200100000200100000202020100100200200100100,
2012012022112122,
100000200100000100200000100000202020100100200000,
100000200100000200200000100100200200101010101010,//62
#GOGOEND
200000000200000000200000202020200000300000200000,//63
#GOGOSTART
3021012011221020,
100000200100000100200000101010100100200000200000,
100000200100000100200000202010100000200000100000,
100000200100000200100000202020100100200200100100,
200200200200100100100100200200200200101010100100,
200200100100200200100100200200200200101010101010,
200200200200200200200200100100200200100010002000,
2121212122222222,//71
#GOGOEND
10222222,
202020200000200000200000200200200200200000000000,//73
#MEASURE 16/4
#GOGOSTART
#SCROLL 1.2
330440
#SCROLL 1.44
330440
#SCROLL 1.73
330440
#SCROLL 2.08
330440
#SCROLL 2.5
330440
#SCROLL 3
33,//74
#MEASURE 4/4
#GOGOEND
4,
#END

COURSE:Hard
LEVEL:7
BALLOON:8
SCOREINIT:480
SCOREDIFF:120
#START
10112010,
11102010,
10201120,
1,
10211020,
11201020,
11221212,
#BPMCHANGE 200
33033033,
03303040,
30112212,
1000101022201000,
01112211,
10112020,
10112211,
1000101022201000,
0022202010102020,
1011101000202020,
10112211,
1000101022201000,
01112211,
10112020,
10112211,
1000101022201000,
0022202010102020,
500000000000000000000008000000000000400000000000,//25
#GOGOSTART
3000200011102010,
1000200011102010,
1110111010002000,
10211020,
1000200011102010,
1000200011102010,
1110222010002000,//32
#GOGOEND
1014,//33
#GOGOSTART
3000200011102010,
1000200011102010,
1110111010002000,
10211020,
1000200011102010,
1000200011102010,
1110222010002000,
7008,//41
#BPMCHANGE 100
#GOGOEND
22,
2,
22,
2,
12,
500000000000000000000000000000000008000000000000,
12,
500000000000000000000000000000000008000000000000,
3220,
22,
#BPMCHANGE 200
#SCROLL 0.625
1012,
#SCROLL 0.75
1120,
#SCROLL 0.875
1111,
#SCROLL 1
3014,//55
#GOGOSTART
3000201011102010,
1000201011102010,
1000201011102010,
1000202011102000,
1000201011102010,
1000201011102010,
1000201011102020,//62
#GOGOEND
1014,//63
#GOGOSTART
3000201011102010,
1000201011102010,
1000201011102010,
1000202011102000,
1110202010102000,
1110202010102000,
1110101022202000,
1010101011102220,//71
#GOGOEND
10222220,
2000202022202000,//73
#MEASURE 16/4
#GOGOSTART
33033033033033033033033033033033,//74
#MEASURE 4/4
#GOGOEND
4,
#END

COURSE:Normal
LEVEL:6
BALLOON:9,8,6,5,5
#START
1110,
11101000,
10101110,
2,
1120,
11102000,
10101110,
#BPMCHANGE 200
11011011,
01103000,
10101110,
1122,
00101110,
1120,
10101110,
1122,
07000000,
08,
10101110,
1122,
00101110,
1120,
10101110,
1122,
07000000,
08,//25
#GOGOSTART
10101110,
20202220,
10101110,
1210,
10101110,
20202220,
10101110,//32
#GOGOEND
12,//33
#GOGOSTART
10101110,
20202220,
10101110,
1210,
10101110,
20202220,
10101110,
7008,//41
#BPMCHANGE 100
#GOGOEND
22,
2,
22,
2,
12,
500000000000000000000000000000000008000000000000,
12,
500000000000000000000000000000000008000000000000,
3,
2,
#BPMCHANGE 200
#SCROLL 0.625
11,
#SCROLL 0.75
1120,
#SCROLL 0.875
500000000000000000000000000000000000000000000008,
#SCROLL 1
,//55
#GOGOSTART
10201110,
10201110,
10201110,
1120,
10201110,
10201110,
10201110,//62
#GOGOEND
7008,//63
#GOGOSTART
10201110,
10201110,
10201110,
1120,
11102020,
11102020,
11102220,
7008,//71
#GOGOEND
10202220,
2220,//73
#MEASURE 16/4
#GOGOSTART
33033033033033033033033033033033,//74
#MEASURE 4/4
#GOGOEND
3,
#END

COURSE:Easy
LEVEL:4
BALLOON:9,8,8,4,4
#START
11,
1110,
11,
2,
1120,
1120,
1111,
#BPMCHANGE 200
7,
08,
12,
1110,
02,
1110,
12,
1110,
07000000,
08,
12,
1110,
02,
1110,
12,
1110,
07000000,
08,//25
#GOGOSTART
3011,
2022,
2220,
12,
1011,
2022,
1110,//32
#GOGOEND
1,//33
#GOGOSTART
3011,
2022,
1110,
12,
1011,
2022,
1110,
3,//41
#BPMCHANGE 100
#GOGOEND
22,
2,
22,
2,
11,
500000000000000000000000000000000008000000000000,
11,
500000000000000000000000000000000008000000000000,
3,
2,
#BPMCHANGE 200
#SCROLL 0.625
11,
#SCROLL 0.75
11,
#SCROLL 0.875
500000000000000000000000000000000000000000000008,
#SCROLL 1
,//55
#GOGOSTART
3012,
1012,
1022,
12,
1012,
1012,
1022,//62
#GOGOEND
7008,//63
#GOGOSTART
3012,
1012,
1022,
12,
1111,
2220,
1122,
7008,//71
#GOGOEND
12,
2,//73
#MEASURE 16/4
#GOGOSTART
30030030030030030030030030030030,//74
#MEASURE 4/4
#GOGOEND
3,
#END
