//TJADB Project
TITLE:Le Tombeau de Couperin
TITLEJA:クープランの墓
SUBTITLE:--Yuuji Masubuchi
BPM:140
WAVE:Le Tombeau de Couperin.ogg
OFFSET:-1.825
DEMOSTART:10.396

COURSE:Oni
LEVEL:8
BALLOON:13,13,40
SCOREINIT:490
SCOREDIFF:118
#START
#SCROLL 0.95
101011210121,
,
100000001000000010001000200010000000200200100100,
100000202020200000222020,
200000302110,
#GOGOSTART
112112102020,
112112102020,
112112102020,
112112212212,
#GOGOEND
100200222100,
222220000000222220000000,
100200222100,
222220000000222220000000,
122011212300,
221022121300,
100002000000020020000000100002000000020020000100,
100002000000020020000000202020201000020010000000,
122011212300,
221022121400,
100002000000020020000100100002000000010010000200,
200001000000020020000000500000000000000080000000,
#GOGOSTART
111000201010100020002010,
111000201010222000102010,
111000201010100020002010,
111000201010222000101010,
221000000000221000000000,
221000000000221000201010,
7008,
222200,
#GOGOEND
100110400110,
100110400110,
222010001000100000000000,
222010001000100020101000,
100110400110,
100110400110,
300112102010,
201220301010,
100110400110,
100110400110,
222010001000100000000000,
222010001000500000080000,
100110400110,
100110400110,
300112102010,
201220300000,
200210201200,
200210201000,
2222,
3330,
110111220221,
110111220221,
110112202211,
111020200010202010101000,
#GOGOSTART
122121112121,
102020102010102010222010,
102020102010101022101010,
122121112121,
102020102010101020222010,
112102202102,
111022210110,
#GOGOEND
111000101020100020002010,
111000101020222000100020,
111000101020100020002010,
111000101020222020201010,
102020101020201022112222,
#GOGOSTART
101011201011,
100010001010221000100010,
101011201011,
100010201010221000101010,
3,
7008,
#GOGOEND
2022,
2220,
2222,
222122100000,
122022202220,
121110000000121110000000,
122022202220,
121110000000121110000000,
122122111111,
300000000000000000000022,
200200200222,
2,
,
7,
,
8,
#END

COURSE:Hard
LEVEL:8
BALLOON:5,5,26,10,10,34
#START
101011200000,
,
101011200000,
200000200222,
200000102220,
#GOGOSTART
101110200010,
101110200010,
101110200010,
101110222100,
#GOGOEND
1222,
44,
1222,
44,
111011100300,
222022200400,
100002000000020020000000100002000000020020000000,
100002000000020020000000700000000000000000800000,
111011100300,
222022200400,
100002000000020020000000100002000000020020000000,
100002000000020020000000700000000000000000800000,
#GOGOSTART
111000101010100000000000,
111000101010100000000000,
222000202020200000000000,
222000202020200000000000,
111000000000222000000000,
111000000000222000000000,
7,
08,
#GOGOEND
100110200110,
100110200110,
222200,
222200,
100110200110,
100110200110,
101110200010,
201220300000,
100110200110,
100110200110,
222200,
222300,
100110200110,
100110200110,
101110201010,
201220300000,
222,
222,
222,
3330,
110110220210,
110110220210,
110110202020,
110110300000,
#GOGOSTART
122121102020,
122121102020,
122121100000,
122121102020,
122121102020,
101101202102,
7008,
#GOGOEND
111000101020100000000000,
111000100000222000200000,
111000101020100000000000,
111000100000222000200000,
111000222000300030003000,
#GOGOSTART
101011201011,
101011201011,
101011201011,
101211210101,
1,
7008,
#GOGOEND
22,
2220,
22,
2210,
122022202220,
111100000000111100000000,
122022202220,
111100000000111100000000,
100000111111,
1,
200200200222,
2,
,
7,
,
8,
,
,
,
#END

COURSE:Normal
LEVEL:7
BALLOON:18,6,6,26
#START
12,
,
12,
22,
23,
#GOGOSTART
101110100000,
101110100000,
101110100000,
202220200000,
#GOGOEND
3,
22,
1,
22,
111000100000,
111000100000,
222200,
222200,
111000100000,
111000100000,
222200,
222200,
#GOGOSTART
58,
5810,
58,
5810,
33,
33,
7,
08,
#GOGOEND
100201,
12,
222200,
222200,
100201,
12,
111100,
201100,
100201,
12,
222200,
222200,
100201,
12,
111100,
201100,
22,
22,
22,
3330,
100110100000,
200220200000,
100110100000,
200220200000,
#GOGOSTART
100111100000,
100111100000,
1130,
200222200000,
200222200000,
2222,
78,
#GOGOEND
100101100000,
200202200000,
100101100000,
200202200000,
111000000000300000000000,
#GOGOSTART
111200,
111200,
111200,
111200,
3,
78,
#GOGOEND
22,
2222,
2210,
1220,
33,
1220,
33,
1220,
,
3,
,
3,
,
7,
,
8,
,
,
,
#END

COURSE:Easy
LEVEL:4
BALLOON:12,4,20
#START
33,
,
33,
,
03,
#GOGOSTART
101100,
101100,
101100,
202200,
#GOGOEND
3,
22,
1,
22,
1011,
1011,
1,
22,
1011,
1011,
1,
22,
#GOGOSTART
100111,
1,
200222,
2,
33,
33,
7,
08,
#GOGOEND
12,
12,
,
,
12,
12,
101100,
101100,
12,
12,
,
,
12,
12,
101100,
101100,
3,
,
22,
3330,
100110100000,
100110100000,
100110100000,
100110100000,
#GOGOSTART
58,
58,
33,
58,
58,
33,
78,
#GOGOEND
1110,
2220,
1110,
2220,
33,
#GOGOSTART
111100,
222200,
111100,
222200,
5,
,
#GOGOEND
8,
22,
2220,
23,
2220,
11,
2220,
11,
2220,
3,
,
3,
,
7,
,
8,
,
,
,
#END
