//TJADB Project
TITLE:Dragon of Ice ~Kooryu~
TITLEJA:氷竜 ~Kooryu~
SUBTITLE:--Azu♪
SUBTITLEJA:Azu♪
BPM:194
WAVE:Dragon of Ice Kooryu.ogg
OFFSET:-1.119
DEMOSTART:76.892

COURSE:Edit
LEVEL:10
BALLOON:12
SCOREINIT:340
SCOREDIFF:75
#START
#MEASURE 7/8
#SCROLL 0.75
2000002,
,
2000007,
0000080,
#SCROLL 1
#MEASURE 4/4
3030122222111212,
2122121121222122,
1000221121112220,
3030222212221000,
33684468,
44683368,
200200100100200100100100100100200200100100101010,
200200100100200100100100100100200200100010001000,
0300,
#SCROLL 0.5
,
#MEASURE 3/4
,
#SCROLL 1
102220101020,
121010,
102012201020,
100022222222,
100010211121,
112111211211,
121121121112,
200200100100100000101010200000200200,
101110400010,
201120112020,
020401,
201120112020,
#MEASURE 4/4
1111221111221222,
200100100100200100100100101010100100200000000000,
100000202020100000000200100000200000100000200000,
1022222210201022,
20220204,
0022202220202020,
200000101010200000000100200000100000200000100000,
2011111120102011,
10110103,
0011101110101010,
2000104000221212,
1212121211111111,
2000104000221212,
1111211121112110,
#GOGOSTART
44433344,
34434434,
43343343,
#SCROLL 5
50000008,
#GOGOEND
#SCROLL 1
1111,
12122012,
1020120020021020,
100000200000100000200000200010001000100010201000,
10101210,
10102011,
2002002002002002,
0220202202022222,
#SCROLL 1.25
1010202210201010,
2022102010102022,
1020201022101020,
2010221020102210,
11211213,
0010201022102210,
#GOGOSTART
30230303,
0011100020201111,
#GOGOEND
1011201020201011,
2010202011221020,
1022201020101022,
2010201022102010,
1221122112211221,
1221122112211221,
1121112111211122,
1121112111211122,
#GOGOSTART
2212111122221211,
2212111122221211,
2212111122221211,
2212111122221211,
#GOGOEND
#MEASURE 3/4
111100,
3,
111100,
3,
111100,
101010101110,
#SCROLL 1
#MEASURE 4/4
32,
22,
1220,
#BPMCHANGE 194.917
2000
#BPMCHANGE 196.656
1000
#BPMCHANGE 198.276
2200
#BPMCHANGE 199.894
2010,
#BPMCHANGE 201.538
10
#BPMCHANGE 203.179
20
#BPMCHANGE 204.798
20
#BPMCHANGE 206.445
10,
#BPMCHANGE 208.052
200000000000
#BPMCHANGE 209.701
100000000000
#BPMCHANGE 211.308
200000000000
#BPMCHANGE 212.958
100200202020,
#BPMCHANGE 214.598
10
#BPMCHANGE 216.212
20
#BPMCHANGE 217.849
20
#BPMCHANGE 219.494
10,
#BPMCHANGE 221.108
2111
#BPMCHANGE 222.765
1000
#BPMCHANGE 224.370
2011
#BPMCHANGE 226.019
2010,
#BPMCHANGE 227.652
10
#BPMCHANGE 229.289
00
#BPMCHANGE 230.910
20
#BPMCHANGE 232.574
11,
#BPMCHANGE 234.201
10
#BPMCHANGE 235.829
10
#BPMCHANGE 237.480
20
#BPMCHANGE 239.132
00,
#BPMCHANGE 240.742
10
#BPMCHANGE 242.397
20
#BPMCHANGE 244.051
20
#BPMCHANGE 245.682
12,
#BPMCHANGE 247.313
2000
#BPMCHANGE 248.965
1000
#BPMCHANGE 250.592
2220
#BPMCHANGE 252.264
2000,
#BPMCHANGE 253.886
1000
#BPMCHANGE 255.529
2011
#BPMCHANGE 257.193
1010
#BPMCHANGE 258.828
1010,
#BPMCHANGE 260.459
100000
#BPMCHANGE 262.110
100000
#BPMCHANGE 263.756
201010
#BPMCHANGE 265.423
101110,
#BPMCHANGE 267.030
100000
#BPMCHANGE 268.684
101010
#BPMCHANGE 270.331
200000
#BPMCHANGE 271.971
100100,
#BPMCHANGE 273
1010101022222220,
#SCROLL 1.5
3,
#BARLINEOFF
#SCROLL 1
0,
#GOGOSTART
#BARLINEON
#SCROLL 1
44,
100112112112,
200020001000200010001000200200100100200010001000,
122122212211,
300222300121,
112221112121,
221212121212,
121212111111,
44,
111222111222,
221212221112,
122212212221,
33,
11221221,
21121212,
1010201010102222,
21121121,
100200100100202010102020,
21121121,
12114444,
21121121,
100000200000100000100000200000200000200010201000,
21121121,
100200100100101010101010,
211211211211,
211211211211,
2111211121112111,
2111211121112111,
#GOGOEND
222221122222,
#GOGOSTART
6,
,
,
,
#GOGOEND
8,
#END

COURSE:Oni
LEVEL:9
SCOREINIT:420
SCOREDIFF:100
#START
#MEASURE 7/8
#SCROLL 0.75
2000002,
,
2000002,
,
#SCROLL 1
#MEASURE 4/4
33500000,
00000820,
6008,
33000030,
33004400,
44003300,
1000200202002000,
100000000000100000000200100200000000100010001000,
0300,
#SCROLL 0.5
,
#MEASURE 3/4
,
#SCROLL 1
122101,
222,
122202,
201011,
100010221122,
112211221122,
111122221122,
112212121122,
101401,
212122,
020401,
212122,
#MEASURE 4/4
1111222211112000,
1122112211112000,
10101212,
1022222010200020,
20220204,
0022202220202020,
10101212,
1022222010200020,
20220204,
0022202220202020,
10160000,
0000000000000800,
10160000,
0000000000000800,
#GOGOSTART
44433344,
44433344,
44433344,
44433343,
#GOGOEND
1111,
10102022,
1111,
100100211111,
10101210,
10102011,
10101212,
50000800,
#SCROLL 1.25
11102211,
10221122,
11102211,
10221122,
10210104,
01221122,
#GOGOSTART
30230306,
00082222,
#GOGOEND
11102211,
10221122,
11102211,
10221122,
1122112211221122,
1122112211221120,
1121112111211120,
1121112111211120,
#GOGOSTART
2222111122112211,
2222111122221111,
2222111122112211,
2222111122221111,
#GOGOEND
#MEASURE 3/4
111100,
3,
111100,
3,
111100,
111100,
#SCROLL 1
#MEASURE 4/4
3021,
22,
1021,
#BPMCHANGE 194.917
2
#BPMCHANGE 196.656
1
#BPMCHANGE 198.276
2
#BPMCHANGE 199.894
0,
#BPMCHANGE 201.538
1
#BPMCHANGE 203.179
2
#BPMCHANGE 204.798
2
#BPMCHANGE 206.445
1,
#BPMCHANGE 208.052
2
#BPMCHANGE 209.701
1
#BPMCHANGE 211.308
2
#BPMCHANGE 212.958
1,
#BPMCHANGE 214.598
1
#BPMCHANGE 216.212
2
#BPMCHANGE 217.849
2
#BPMCHANGE 219.494
1,
#BPMCHANGE 221.108
2
#BPMCHANGE 222.765
1
#BPMCHANGE 224.370
2
#BPMCHANGE 226.019
1,
#BPMCHANGE 227.652
1
#BPMCHANGE 229.289
0
#BPMCHANGE 230.910
2
#BPMCHANGE 232.574
1,
#BPMCHANGE 234.201
2
#BPMCHANGE 235.829
1
#BPMCHANGE 237.480
2
#BPMCHANGE 239.132
0,
#BPMCHANGE 240.742
1
#BPMCHANGE 242.397
2
#BPMCHANGE 244.051
2
#BPMCHANGE 245.682
1,
#BPMCHANGE 247.313
2
#BPMCHANGE 248.965
1
#BPMCHANGE 250.592
2
#BPMCHANGE 252.264
0,
#BPMCHANGE 253.886
1
#BPMCHANGE 255.529
2
#BPMCHANGE 257.193
2
#BPMCHANGE 258.828
1,
#BPMCHANGE 260.459
2
#BPMCHANGE 262.110
1
#BPMCHANGE 263.756
2
#BPMCHANGE 265.423
1,
#BPMCHANGE 267.030
1
#BPMCHANGE 268.684
2
#BPMCHANGE 270.331
2
#BPMCHANGE 271.971
1,
#BPMCHANGE 273
20102000,
#SCROLL 1.5
3,
#BARLINEOFF
#SCROLL 1
,
#GOGOSTART
#BARLINEON
#SCROLL 1
44,
100200101200,
102100100102,
102100102222,
33,
100102102100,
100102200200,
100100222222,
44,
100200101200,
102100100102,
102100102222,
33,
11221222,
21121121,
11211120,
21121121,
12112120,
21121121,
12114444,
21121121,
12112122,
21121121,
12112020,
211211211200,
211211211200,
211211211200,
211211211200,
#GOGOEND
2,
#GOGOSTART
6,
,
,
,
#GOGOEND
8,
#END

COURSE:Hard
LEVEL:8
BALLOON:40,5,5
SCOREINIT:680
SCOREDIFF:170
#START
#MEASURE 7/8
#SCROLL 0.75
2000002,
,
2000002,
,
#SCROLL 1
#MEASURE 4/4
33000000,
0002,
3,
33000000,
33004400,
44003300,
5,
00000008,
0300,
#SCROLL 0.5
,
#MEASURE 3/4
,
#SCROLL 1
122101,
111,
122202,
2,
101,
101110,
101110,
101110,
14,
101011,
010400,
101011,
#MEASURE 4/4
1110100010001000,
2220200020002000,
10101202,
12201202,
20220204,
0022202020202000,
10101202,
12201202,
20220204,
0022202020202000,
10160000,
0000000000000800,
10160000,
0000000000000800,
#GOGOSTART
30030030,
40040040,
30030030,
40040040,
#GOGOEND
1111,
10102012,
1111,
10102022,
1111,
10102022,
1111,
50000800,
#SCROLL 1.2
10102210,
10221120,
10102210,
10221120,
10110103,
00000222,
#GOGOSTART
30230306,
00080000,
#GOGOEND
10102210,
10221120,
10102210,
10221120,
5,
,
,
0008,
#GOGOSTART
9,
,
,
9008,
#GOGOEND
#MEASURE 3/4
111100,
3,
111100,
3,
111100,
111100,
#SCROLL 1
#MEASURE 4/4
31,
22,
11,
2000
#BPMCHANGE 195
2
#BPMCHANGE 196
0
#BPMCHANGE 197
0
#BPMCHANGE 198
0,
#BPMCHANGE 199
1
#BPMCHANGE 200
0
#BPMCHANGE 201
0
#BPMCHANGE 202
0
#BPMCHANGE 203
1
#BPMCHANGE 204
0
#BPMCHANGE 205
0
#BPMCHANGE 206
0,
#BPMCHANGE 207
2
#BPMCHANGE 208
0
#BPMCHANGE 209
0
#BPMCHANGE 210
0
#BPMCHANGE 211
2
#BPMCHANGE 212
0
#BPMCHANGE 213
0
#BPMCHANGE 214
0,
#BPMCHANGE 215
1
#BPMCHANGE 216
0
#BPMCHANGE 217
0
#BPMCHANGE 218
0
#BPMCHANGE 219
1
#BPMCHANGE 220
0
#BPMCHANGE 221
0
#BPMCHANGE 222
0,
#BPMCHANGE 223
2
#BPMCHANGE 224
0
#BPMCHANGE 225
0
#BPMCHANGE 226
0
#BPMCHANGE 227
2
#BPMCHANGE 228
0
#BPMCHANGE 229
0
#BPMCHANGE 229.5
0,
#BPMCHANGE 230
1
#BPMCHANGE 230.4
0
#BPMCHANGE 230.8
0
#BPMCHANGE 231.2
0
#BPMCHANGE 231.6
1
#BPMCHANGE 232
0
#BPMCHANGE 232.5
0
#BPMCHANGE 233
0,
#BPMCHANGE 234
2
#BPMCHANGE 235
0
#BPMCHANGE 236
0
#BPMCHANGE 237
0
#BPMCHANGE 237.5
2
#BPMCHANGE 238
0
#BPMCHANGE 238.5
0
#BPMCHANGE 239
0,
#BPMCHANGE 239.5
1
#BPMCHANGE 240
0
#BPMCHANGE 240.5
0
#BPMCHANGE 241
0
#BPMCHANGE 241.5
1
#BPMCHANGE 242
0
#BPMCHANGE 242.5
0
#BPMCHANGE 243
0,
#BPMCHANGE 244
2
#BPMCHANGE 245
0
#BPMCHANGE 246
0
#BPMCHANGE 247
0
#BPMCHANGE 248
2
#BPMCHANGE 249
0
#BPMCHANGE 250
0
#BPMCHANGE 251
0,
#BPMCHANGE 252
1
#BPMCHANGE 253
0
#BPMCHANGE 254
0
#BPMCHANGE 255
0
#BPMCHANGE 256
1
#BPMCHANGE 257
0
#BPMCHANGE 258
0
#BPMCHANGE 259
0,
#BPMCHANGE 260
2
#BPMCHANGE 261
0
#BPMCHANGE 262
0
#BPMCHANGE 263
0
#BPMCHANGE 264
2
#BPMCHANGE 265
0
#BPMCHANGE 266
0
#BPMCHANGE 267
0,
#BPMCHANGE 267.5
1
#BPMCHANGE 268
0
#BPMCHANGE 268.5
0
#BPMCHANGE 269
0
#BPMCHANGE 269.5
1
#BPMCHANGE 270
0
#BPMCHANGE 270.5
0
#BPMCHANGE 271
0,
#BPMCHANGE 271.5
2
#BPMCHANGE 272
0
#BPMCHANGE 273
002000,
#MEASURE 8/4
3,
#SCROLL 1
#MEASURE 4/4
#GOGOSTART
44,
1212,
111100100200,
22,
33,
2121,
222200200100,
1111,
44,
1212,
111100100200,
22,
33,
10101111,
1112,
1112,
20120120,
12012020,
20120120,
12012010,
20120120,
12012120,
20120120,
12012020,
50000800,
50000800,
7008,
7008,
#GOGOEND
,
#GOGOSTART
6,
,
,
,
#GOGOEND
8,
,
,
,
#END

COURSE:Normal
LEVEL:7
BALLOON:30,4,4
SCOREINIT:760
SCOREDIFF:212
#START
#MEASURE 7/8
#SCROLL 0.75
2000002,
,
2000002,
,
#SCROLL 1
#MEASURE 4/4
33000000,
,
3,
3,
34,
43,
5,
00000008,
0300,
#SCROLL 0.5
,
#MEASURE 3/4
,
#SCROLL 1
101101,
1,
102202,
2,
101,
101110,
101110,
101110,
14,
101011,
010400,
101011,
#MEASURE 4/4
1011,
2022,
1110,
11,
20020204,
0022,
1110,
11,
20020204,
0022,
10060000,
0000000000000800,
10060000,
0000000000000800,
#GOGOSTART
30030030,
40040040,
30030030,
40040040,
#GOGOEND
1,
12,
1,
12,
1,
12,
1,
50000800,
#SCROLL 1.2
1101,
1022,
1101,
1022,
10110103,
00000220,
#GOGOSTART
30030306,
00080000,
#GOGOEND
1101,
1022,
1101,
1022,
5,
,
,
0008,
#GOGOSTART
9,
,
,
9008,
#GOGOEND
#MEASURE 3/4
1,
3,
1,
3,
1,
1,
#SCROLL 1
#MEASURE 4/4
3,
22,
1,
2000
#BPMCHANGE 195
2
#BPMCHANGE 196
0
#BPMCHANGE 197
0
#BPMCHANGE 198
0,
#BPMCHANGE 199
1
#BPMCHANGE 200
0
#BPMCHANGE 201
0
#BPMCHANGE 202
0
#BPMCHANGE 203
0
#BPMCHANGE 204
0
#BPMCHANGE 205
0
#BPMCHANGE 206
0,
#BPMCHANGE 207
2
#BPMCHANGE 208
0
#BPMCHANGE 209
0
#BPMCHANGE 210
0
#BPMCHANGE 211
2
#BPMCHANGE 212
0
#BPMCHANGE 213
0
#BPMCHANGE 214
0,
#BPMCHANGE 215
1
#BPMCHANGE 216
0
#BPMCHANGE 217
0
#BPMCHANGE 218
0
#BPMCHANGE 219
0
#BPMCHANGE 220
0
#BPMCHANGE 221
0
#BPMCHANGE 222
0,
#BPMCHANGE 223
2
#BPMCHANGE 224
0
#BPMCHANGE 225
0
#BPMCHANGE 226
0
#BPMCHANGE 227
2
#BPMCHANGE 228
0
#BPMCHANGE 229
0
#BPMCHANGE 229.5
0,
#BPMCHANGE 230
1
#BPMCHANGE 230.4
0
#BPMCHANGE 230.8
0
#BPMCHANGE 231.2
0
#BPMCHANGE 231.6
0
#BPMCHANGE 232
0
#BPMCHANGE 232.5
0
#BPMCHANGE 233
0,
#BPMCHANGE 234
2
#BPMCHANGE 235
0
#BPMCHANGE 236
0
#BPMCHANGE 237
0
#BPMCHANGE 237.5
2
#BPMCHANGE 238
0
#BPMCHANGE 238.5
0
#BPMCHANGE 239
0,
#BPMCHANGE 239.5
1
#BPMCHANGE 240
0
#BPMCHANGE 240.5
0
#BPMCHANGE 241
0
#BPMCHANGE 241.5
0
#BPMCHANGE 242
0
#BPMCHANGE 242.5
0
#BPMCHANGE 243
0,
#BPMCHANGE 244
2
#BPMCHANGE 245
0
#BPMCHANGE 246
0
#BPMCHANGE 247
0
#BPMCHANGE 248
2
#BPMCHANGE 249
0
#BPMCHANGE 250
0
#BPMCHANGE 251
0,
#BPMCHANGE 252
1
#BPMCHANGE 253
0
#BPMCHANGE 254
0
#BPMCHANGE 255
0
#BPMCHANGE 256
0
#BPMCHANGE 257
0
#BPMCHANGE 258
0
#BPMCHANGE 259
0,
#BPMCHANGE 260
2
#BPMCHANGE 261
0
#BPMCHANGE 262
0
#BPMCHANGE 263
0
#BPMCHANGE 264
2
#BPMCHANGE 265
0
#BPMCHANGE 266
0
#BPMCHANGE 267
0,
#BPMCHANGE 267.5
1
#BPMCHANGE 268
0
#BPMCHANGE 268.5
0
#BPMCHANGE 269
0
#BPMCHANGE 269.5
0
#BPMCHANGE 270
0
#BPMCHANGE 270.5
0
#BPMCHANGE 271
0,
#BPMCHANGE 271.5
2
#BPMCHANGE 272
0
#BPMCHANGE 273
002000,
#MEASURE 8/4
3,
#SCROLL 1
#MEASURE 4/4
#GOGOSTART
44,
1111,
1212,
22,
33,
2211,
2121,
1111,
44,
1111,
1212,
22,
33,
10101110,
1110,
1110,
10010020,
02001010,
10010020,
02001020,
10010020,
02001010,
10010020,
02001010,
50000800,
50000800,
7008,
7008,
#GOGOEND
,
#GOGOSTART
6,
,
,
,
#GOGOEND
8,
,
,
,
#END

COURSE:Easy
LEVEL:5
BALLOON:20,3,3
SCOREINIT:550
SCOREDIFF:160
#START
#MEASURE 7/8
#SCROLL 0.75
2,
,
2,
,
#SCROLL 1
#MEASURE 4/4
3,
,
3,
3,
33,
33,
5,
00000008,
0300,
#SCROLL 0.5
,
#MEASURE 3/4
,
#SCROLL 1
1,
1,
1,
2,
101,
101,
101,
101,
14,
111,
04,
111,
#MEASURE 4/4
11,
2,
11,
1,
22,
02,
11,
1,
22,
02,
10060000,
0000000000000800,
10060000,
0000000000000800,
#GOGOSTART
30030030,
40040040,
30030030,
40040040,
#GOGOEND
1,
12,
1,
12,
1,
12,
1,
50000800,
#SCROLL 1.2
1101,
1011,
1101,
1011,
10010003,
,
#GOGOSTART
30030306,
00080000,
#GOGOEND
1101,
1011,
1101,
11,
5,
,
,
0008,
#GOGOSTART
9,
,
,
9008,
#GOGOEND
#MEASURE 3/4
1,
3,
1,
3,
1,
1,
#SCROLL 1
#MEASURE 4/4
3,
2,
1,
2000
#BPMCHANGE 195
0
#BPMCHANGE 196
0
#BPMCHANGE 197
0
#BPMCHANGE 198
0,
#BPMCHANGE 199
1
#BPMCHANGE 200
0
#BPMCHANGE 201
0
#BPMCHANGE 202
0
#BPMCHANGE 203
0
#BPMCHANGE 204
0
#BPMCHANGE 205
0
#BPMCHANGE 206
0,
#BPMCHANGE 207
2
#BPMCHANGE 208
0
#BPMCHANGE 209
0
#BPMCHANGE 210
0
#BPMCHANGE 211
0
#BPMCHANGE 212
0
#BPMCHANGE 213
0
#BPMCHANGE 214
0,
#BPMCHANGE 215
1
#BPMCHANGE 216
0
#BPMCHANGE 217
0
#BPMCHANGE 218
0
#BPMCHANGE 219
0
#BPMCHANGE 220
0
#BPMCHANGE 221
0
#BPMCHANGE 222
0,
#BPMCHANGE 223
2
#BPMCHANGE 224
0
#BPMCHANGE 225
0
#BPMCHANGE 226
0
#BPMCHANGE 227
0
#BPMCHANGE 228
0
#BPMCHANGE 229
0
#BPMCHANGE 229.5
0,
#BPMCHANGE 230
1
#BPMCHANGE 230.4
0
#BPMCHANGE 230.8
0
#BPMCHANGE 231.2
0
#BPMCHANGE 231.6
0
#BPMCHANGE 232
0
#BPMCHANGE 232.5
0
#BPMCHANGE 233
0,
#BPMCHANGE 234
2
#BPMCHANGE 235
0
#BPMCHANGE 236
0
#BPMCHANGE 237
0
#BPMCHANGE 237.5
0
#BPMCHANGE 238
0
#BPMCHANGE 238.5
0
#BPMCHANGE 239
0,
#BPMCHANGE 239.5
1
#BPMCHANGE 240
0
#BPMCHANGE 240.5
0
#BPMCHANGE 241
0
#BPMCHANGE 241.5
0
#BPMCHANGE 242
0
#BPMCHANGE 242.5
0
#BPMCHANGE 243
0,
#BPMCHANGE 244
2
#BPMCHANGE 245
0
#BPMCHANGE 246
0
#BPMCHANGE 247
0
#BPMCHANGE 248
0
#BPMCHANGE 249
0
#BPMCHANGE 250
0
#BPMCHANGE 251
0,
#BPMCHANGE 252
1
#BPMCHANGE 253
0
#BPMCHANGE 254
0
#BPMCHANGE 255
0
#BPMCHANGE 256
0
#BPMCHANGE 257
0
#BPMCHANGE 258
0
#BPMCHANGE 259
0,
#BPMCHANGE 260
2
#BPMCHANGE 261
0
#BPMCHANGE 262
0
#BPMCHANGE 263
0
#BPMCHANGE 264
0
#BPMCHANGE 265
0
#BPMCHANGE 266
0
#BPMCHANGE 267
0,
#BPMCHANGE 267.5
1
#BPMCHANGE 268
0
#BPMCHANGE 268.5
0
#BPMCHANGE 269
0
#BPMCHANGE 269.5
0
#BPMCHANGE 270
0
#BPMCHANGE 270.5
0
#BPMCHANGE 271
0,
#BPMCHANGE 271.5
2
#BPMCHANGE 272
0
#BPMCHANGE 273
000000,
#MEASURE 8/4
3,
#SCROLL 1
#MEASURE 4/4
#GOGOSTART
44,
1110,
11,
22,
33,
2220,
22,
11,
44,
1110,
11,
22,
33,
1,
11,
1110,
1001,
0022,
1001,
0022,
1001,
0022,
1001,
0022,
50000800,
50000800,
7008,
7008,
#GOGOEND
,
#GOGOSTART
6,
,
,
,
#GOGOEND
8,
,
,
,
#END
