//TJADB Project
TITLE:Alborada del Gracioso
TITLEJA:道化師の朝の歌
SUBTITLE:--YMY/Piano Suite “Mirror”
BPM:150
WAVE:Alborada del Gracioso.ogg
OFFSET:-2.502
DEMOSTART:22.901

COURSE:Oni
LEVEL:8
BALLOON:9,9,18
SCOREINIT:620
SCOREDIFF:155
#START
,
#MEASURE 2/4
,
#MEASURE 4/4
1000100011101010,
#MEASURE 2/4
0212,
#MEASURE 4/4
1000100011101010,
#MEASURE 2/4
0212,
#MEASURE 4/4
1000100011101010,
#MEASURE 2/4
0212,
#MEASURE 4/4
1000100011101010,
#MEASURE 2/4
00102011,
#MEASURE 3/4
121212,
102220201020,
121212,
102220201020,
101120112022,
000022,
000202,
101120201020,
101120201020,
101110200020,
101110200020,
101120201020,
101120201020,
101110200020,
101110200020,
101110200020,
500000000000000000000008000000000000,
200020002222,
200022222020,
200020002222,
222220202020,
200022221000,
400022221000,
4,
,
#MEASURE 3/8
,
#GOGOSTART
#MEASURE 3/4
102210221022,
#MEASURE 3/8
101022,
#MEASURE 3/4
102210221022,
#MEASURE 3/8
101022,
#MEASURE 3/4
102120121020,
#MEASURE 3/8
112,
#MEASURE 3/4
102120121020,
#MEASURE 3/8
112,
#MEASURE 3/4
101210212012,
102120121020,
102210221022,
#MEASURE 3/8
101022,
#MEASURE 3/4
102210221022,
#MEASURE 3/8
102210,
#MEASURE 3/4
102120121022,
#MEASURE 3/8
112,
#MEASURE 3/4
102120121022,
#MEASURE 3/8
112,
#MEASURE 3/4
102120121010,
102120121010,
708,
500000000000000000000008000000000000,
708,
500000000000000000000008000000000000,
#GOGOEND
100000200200200000200000202020202020,
000000200200200000200000202020202020,
140,
340,
304,
#BPMCHANGE 154
#SCROLL 1.2
101110111022,
101120112011,
101110111022,
101120112022,
101120112011,
101120112022,
102210201020,
102210201020,
102210201020,
102210201111,
100010001122,
100022112211,
100010001122,
100022111122,
#BPMCHANGE 152
7,
#BPMCHANGE 150
#SCROLL 1
000000000000000800000000,
#BPMCHANGE 152
3,
#BPMCHANGE 154
,
#BPMCHANGE 158
#SCROLL 1.5
101110111022,
101122112211,
101122112211,
#MEASURE 4/4
2211221122112211,
#MEASURE 2/4
22112211,
#MEASURE 3/4
102220302220,
302220302222,
102210203000,
#END

COURSE:Hard
LEVEL:7
BALLOON:6,6,15
SCOREINIT:690
SCOREDIFF:160
#START
,
#MEASURE 2/4
,
#MEASURE 4/4
10101101,
#MEASURE 2/4
0202,
#MEASURE 4/4
10101101,
#MEASURE 2/4
0202,
#MEASURE 4/4
10101101,
#MEASURE 2/4
0202,
#MEASURE 4/4
10101101,
#MEASURE 2/4
0121,
#MEASURE 3/4
112,
110020,
112,
110020,//14
102220222022,
002,
000202,
111010002000,
111010002000,
101110200020,
101110200020,//21
111010002000,
111010002000,
101110200020,
101110200020,
101110200020,
508,//27
200022,
202220,
200022,
202220,
401,
401,
4,
,
#MEASURE 3/8
,//36
#MEASURE 3/4
#GOGOSTART
101110111011,
#MEASURE 3/8
110,
#MEASURE 3/4
101110111011,
#MEASURE 3/8
110,
#MEASURE 3/4
101110100020,
#MEASURE 3/8
112,
#MEASURE 3/4
101110100020,
#MEASURE 3/8
112,
#MEASURE 3/4
101110002000,
101110002000,//46
101110111011,
#MEASURE 3/8
110,
#MEASURE 3/4
101110111011,
#MEASURE 3/8
101,
#MEASURE 3/4
101110001000,
#MEASURE 3/8
112,
#MEASURE 3/4
101110001000,
#MEASURE 3/8
112,
#MEASURE 3/4
101110002020,
101110002020,
708,
508,
708,
508,//60
#GOGOEND
002220222000,
002220222000,
340,
340,
304,
#BPMCHANGE 154
100010001011,
100010111011,
100010001011,
100010111010,
200020002022,
200020222020,//71
101202,
101202,
101110201020,
101110201020,
101012,
102121,
101012,
102112,
#BPMCHANGE 152
7,
#BPMCHANGE 150
#SCROLL 1
0008,
#BPMCHANGE 152
3,
#BPMCHANGE 154
,//83
#BPMCHANGE 158
#SCROLL 1.2
100010001011,
100010111011,
100010111011,
#MEASURE 4/4
1011101110111011,
#MEASURE 2/4
10111010,
#MEASURE 3/4
33,
33,
102220203000,//91
,
,
#END

COURSE:Normal
LEVEL:7
BALLOON:5,5,13
#START
,
#MEASURE 2/4
,
#MEASURE 4/4
1110,
#MEASURE 2/4
12,
#MEASURE 4/4
1110,
#MEASURE 2/4
12,//6
#MEASURE 4/4
10101011,
#MEASURE 2/4
1,
#MEASURE 4/4
10101011,
#MEASURE 2/4
1,
#MEASURE 3/4
111,
300020,
111,
300020,//14
112,
110020,
11,
111010,
111010,
122,
111000,//21
111020,
111020,
122,
111000,
111010,
508,//27
101011,
101110,
101011,
101110,
302,
302,
3,
,
#MEASURE 3/8
,//36
#MEASURE 3/4
#GOGOSTART
111,
#MEASURE 3/8
111,
#MEASURE 3/4
111,
#MEASURE 3/8
111,
#MEASURE 3/4
122,
#MEASURE 3/8
1,
#MEASURE 3/4
122,
#MEASURE 3/8
1,
#MEASURE 3/4
101011,
101011,//46
111,
#MEASURE 3/8
111,
#MEASURE 3/4
111,
#MEASURE 3/8
111,
#MEASURE 3/4
122,
#MEASURE 3/8
1,
#MEASURE 3/4
122,
#MEASURE 3/8
1,
#MEASURE 3/4
304,
304,
708,
508,
708,
508,//60
#GOGOEND
020,
020,
340,
340,
3,
#BPMCHANGE 154
101011,
101110,
101011,
101110,
202022,
202220,//71
122,
122,
102220,
102220,
301,
101110,
100011,
101110,
#BPMCHANGE 152
7,
#BPMCHANGE 150
#SCROLL 1
0008,
#BPMCHANGE 152
3,
#BPMCHANGE 154
,//83
#BPMCHANGE 158
101011,
102220,
101111,
#MEASURE 4/4
11111111,
#MEASURE 2/4
1110,
#MEASURE 3/4
33,
33,
123,//91
,
,
#END

COURSE:Easy
LEVEL:5
BALLOON:4,4,10
#START
,
#MEASURE 2/4
,
#MEASURE 4/4
11,
#MEASURE 2/4
11,
#MEASURE 4/4
11,
#MEASURE 2/4
11,//6
#MEASURE 4/4
11,
#MEASURE 2/4
11,
#MEASURE 4/4
11,
#MEASURE 2/4
11,
#MEASURE 3/4
1,
301,
1,
301,//14
1,
202,
4,
110,
110,
101,
1,//21
101,
101,
1,
2,
1,
58,//27
101,
1,
101,
1,
3,
4,
3,
,
#MEASURE 3/8
,//36
#MEASURE 3/4
#GOGOSTART
111,
#MEASURE 3/8
,
#MEASURE 3/4
111,
#MEASURE 3/8
,
#MEASURE 3/4
101,
#MEASURE 3/8
1,
#MEASURE 3/4
101,
#MEASURE 3/8
1,
#MEASURE 3/4
1,
2,//46
111,
#MEASURE 3/8
,
#MEASURE 3/4
111,
#MEASURE 3/8
,
#MEASURE 3/4
101,
#MEASURE 3/8
1,
#MEASURE 3/4
101,
#MEASURE 3/8
1,
#MEASURE 3/4
3,
3,
708,
508,
708,
508,//60
#GOGOEND
010,
010,
3,
3,
3,
#BPMCHANGE 154
111,
010,
111,
010,
222,
02,//71
101,
1,
101,
1,
301,
110,
202,
220,
#BPMCHANGE 152
7,
#BPMCHANGE 150
#SCROLL 1
0008,
#BPMCHANGE 152
3,
#BPMCHANGE 154
,//83
#BPMCHANGE 158
111,
1,
222,
#MEASURE 4/4
21,
#MEASURE 2/4
1,
#MEASURE 3/4
33,
33,
113,//91
,
,
#END
