//TJADB Project
TITLE:Zenmai Shoujo-dokei
TITLEJA:撥条少女時計
SUBTITLE:--Seifu Meigetsu feat. Hatsune Miku/#C.O.M.P.A.S.S.
SUBTITLEJA:Drop&葉月ゆら feat.初音ミク 「戦闘摂理解析システム#コンパス」より
BPM:134
WAVE:Zenmai Shoujo-dokei.ogg
OFFSET:-1.985
DEMOSTART:73.598

COURSE:Oni
LEVEL:8
SCOREINIT:470
SCOREDIFF:110
#START
22222010,
20202002,
20022002,
2022202020000000,
22222010,
20202002,
20022002,
22222000,
,
100200200200100200200200100010001000400000000000,
11212212,
1120202010201000,
11212212,
2210221022204000,
10121020,
11201120,
1000201110002000,
2000102220221022,
10121020,
11201120,
1000201110002000,
2000102220121000,
11212120,
11212120,
2010201110102010,
1020102220221022,
11212120,
11212120,
2010221022122210,
500000000000000000000000000008000000400000000000,
1020100020002222,
100000100000100000000000100200202020200200200000,
1020100020002222,
100000100200100000202020100200200200100000000000,
12121022,
1020102010112000,
1110212011102120,
2210121022101210,
1021212121212120,
400400111400,
#GOGOSTART
100000201010200000200200100000200000100000200200,
100000101010200000100000200200100200200000200200,
100000101010200200100000100000101010200200100000,
3020302011112220,
100000201010200000200200100000200000100000200200,
100000101010200000100000200200100200200000200200,
100000101010200200100000100000101010200200100000,
300200300200300222200000,
#GOGOEND
1010222010102220,
2212112121212220,
2221221111212121,
201020102010200200100100200000200200100100100000,
400400111400,
2221,
20202002,
20022002,
2022202020000000,
2221,
20202002,
20022002,
0003,
#GOGOSTART
100000201010200000200200100000200100100000100100,
200000101010200000100000200200100200200000200200,
100000101010200200100000100000101010200200100000,
3020302011112220,
100000201010200000200200100000200100100000100100,
200000101010200000100000200200100200200000200200,
100000101010200200100000100000101010200200100000,
300200300200300222200000,
#GOGOEND
11212212,
1120202010201000,
11212212,
2210221022204000,
#BPMCHANGE 131
221
#BPMCHANGE 125
221
#BPMCHANGE 119
221
#BPMCHANGE 112
221,
#BPMCHANGE 107
221
#BPMCHANGE 102
221
#BPMCHANGE 94
221
#BPMCHANGE 88
221,
4,
#END

COURSE:Hard
LEVEL:4
BALLOON:46
SCOREINIT:570
SCOREDIFF:160
#START
2221,
20202002,
20022002,
2220,
2221,
20202002,
20022002,
2220,
,
3334,
11201120,
11221110,
11201120,
3330,
10101110,
1112,
1000001110001000,
1000001110000000,
10101110,
1122,
10011000,
20022000,
1212,
1112,
1000001110001000,
1000001110000000,
1212,
1122,
10101011,
500000000000000000000000000008000000000000000000,
20202002,
22202000,
20202002,
22202000,
12121022,
12121000,
1111,
3333,
600000000000000000000000000000000000000008000000,
4443,
#GOGOSTART
11211010,
10202001,
10211020,
3330,
11211010,
10202001,
10211020,
3332,
#GOGOEND
1212,
11221120,
21212121,
2220,
4443,
22,
20202002,
20022002,
2220,
22,
20202002,
20022000,
,
#GOGOSTART
11211010,
10202001,
10211020,
3330,
11211010,
10202001,
10211020,
3330,
#GOGOEND
11201120,
11221110,
11201120,
3330,
#BPMCHANGE 131
7
#BPMCHANGE 125
0
#BPMCHANGE 119
0
#BPMCHANGE 112
0,
#BPMCHANGE 107
0
#BPMCHANGE 102
0
#BPMCHANGE 94
0
#BPMCHANGE 88
0,
8,
#END

COURSE:Normal
LEVEL:3
BALLOON:36
SCOREINIT:690
SCOREDIFF:230
#START
22,
2220,
22,
2220,
22,
2220,
22,
2220,
,
3330,
1212,
11101000,
1212,
3330,
11,
1110,
11,
22,
11,
1110,
11,
22,
12,
1110,
11,
22,
12,
1110,
11,
500000000000000000000000000008000000000000000000,
22,
22202000,
22,
22202000,
1110,
1110,
1111,
3333,
600000000000000000000000000000000000000008000000,
4443,
#GOGOSTART
11101010,
2220,
11,
3330,
11101000,
2220,
11,
3330,
#GOGOEND
11,
1111,
2222,
22,
4443,
2,
2,
22,
2220,
2,
2,
22,
,
#GOGOSTART
11101010,
2220,
11,
3330,
11101010,
2220,
11,
3330,
#GOGOEND
1212,
1110,
1212,
3330,
#BPMCHANGE 131
7
#BPMCHANGE 125
0
#BPMCHANGE 119
0
#BPMCHANGE 112
0,
#BPMCHANGE 107
0
#BPMCHANGE 102
0
#BPMCHANGE 94
0
#BPMCHANGE 88
0,
8,
#END

COURSE:Easy
LEVEL:2
BALLOON:26
SCOREINIT:670
SCOREDIFF:293
#START
2,
2,
22,
2,
2,
2,
22,
2,
,
3330,
11,
1110,
11,
3330,
1,
1,
11,
1,
1,
1,
11,
1,
1,
1,
11,
1,
1,
1,
11,
500000000000000000000000000008000000000000000000,
2,
2,
2,
2,
11,
11,
1110,
3330,
600000000000000000000000000000000000000008000000,
,
#GOGOSTART
11,
11,
22,
3330,
11,
11,
22,
3330,
#GOGOEND
11,
1110,
1110,
22,
3330,
2,
2,
22,
2,
2,
2,
2,
,
#GOGOSTART
11,
11,
22,
3330,
11,
11,
22,
3330,
#GOGOEND
11,
1110,
11,
3330,
#BPMCHANGE 131
7
#BPMCHANGE 125
0
#BPMCHANGE 119
0
#BPMCHANGE 112
0,
#BPMCHANGE 107
0
#BPMCHANGE 102
0
#BPMCHANGE 94
0
#BPMCHANGE 88
0,
8,
#END
