//TJADB Project
TITLE:Touken Ranbu
TITLEJA:刀剣乱舞
SUBTITLE:--Touken Danshi: Team Sanjou & Kashuu Kiyomitsu
SUBTITLEJA:刀剣男士 team三条 with加州清光
BPM:144
WAVE:Touken Ranbu.ogg
OFFSET:-1.834
DEMOSTART:97.631

COURSE:Oni
LEVEL:5
BALLOON:9,9,9
SCOREINIT:680
SCOREDIFF:180
#START
20020020,
1022,
2,
22,
30020020,
1022,
2,
2022,
1000200010001011,
11100022,
20221202,
12,
2011,
20201011,
500000000000000000000000000000000000000008000000,
0022,
1000200010001011,
11102022,
10221201,
1020200010000011,
10002011,
1111,
500000000000000000000000000000000000000008000000,
21212120,//24
#GOGOSTART
10211012,
1000102220102000,
10211012,
1000102220101000,
10211012,
1000102220102000,
10211012,
1000102220101000,//32
#GOGOEND
10112021,
11211202,
11211020,
500000000000000000000008000000000000000000100000,
11112121,
11120121,
11111111,
7084,
10122021,
11212200,
11211010,
600000000000000000000008000000000000000000100000,
11112121,
11120212,
11111010,
70008022,
2002,
2002,
2022,
2021,
10001021,
12201022,
10101012,
10127000,
80020222,
2022,//58
#GOGOSTART
10121011,
1011100010001011,
1000102010001011,
12102000,
20001012,
1000101110201020,
500000000000000000000000000000000000000008000000,
0022,
10121011,
1011100010001011,
10121012,
3000200011102000,
1000100010201011,
10101211,
500000000000000000000000000000000000000008000000,
21212120,
10211012,
1000102220102000,
10211012,
1000102220101000,
10211012,
1000102220102000,
10211012,
1000102220101000,//82
#GOGOEND
33000000,
#END

COURSE:Hard
LEVEL:3
BALLOON:7,7,6
SCOREINIT:700
SCOREDIFF:180
#START
20020020,
0022,
2,
22,
30020020,
0022,
2,
2011,
11,
1100,
11,
12,
2011,
10101011,
500000000000000000000000000000000000000008000000,
0022,
11,
1100,
11,
3,
1,
1111,
500000000000000000000000000000000000000008000000,
0022,//24
#GOGOSTART
10201012,
10101011,
10201012,
10101011,
10201012,
10101011,
10201012,
1110,//32
#GOGOEND
1022,
11,
1211,
1,
1022,
1112,
11111010,
70000800,
1022,
11,
1211,
3,
1022,
1112,
11111010,
70000800,
2002,
2002,
2022,
22,
1012,
1120,
1111,
27,
8,
0022,//58
#GOGOSTART
10121011,
10101011,
10121011,
12,
20001012,
10111011,
500000000000000000000000000000000000000008000000,
0022,
10121011,
10101210,
1111,
600000000000000000000000000008000000000000000000,
10101210,
10101210,
500000000000000000000000000000000000000008000000,
,
10201012,
10101011,
10201012,
10101011,
10201012,
10101011,
10201012,
10101110,//82
#GOGOEND
33000000,
,
,
,
,
,
,
#END

COURSE:Normal
LEVEL:2
BALLOON:10
#START
,
,
,
,
3,
,
2,
2,
11,
1,
11,
12,
1,
11,
500000000000000000000000000000000000000008000000,
,
11,
1,
11,
3,
1,
11,
500000000000000000000000000000000000000008000000,
,//24
#GOGOSTART
1110,
1110,
1110,
11,
1110,
1110,
1110,
11,//32
#GOGOEND
1,
1,
1011,
1,
1,
11,
1111,
1,
11,
11,
1011,
3,
1,
11,
1011,
1,
2002,
2002,
2022,
22,
11,
11,
1111,
7,
8,
0011,//58
#GOGOSTART
1011,
1,
1011,
12,
2011,
1110,
500000000000000000000000000000000000000008000000,
0011,
1011,
1,
11,
600000000000000000000000000008000000000000000000,
11,
1110,
500000000000000000000000000000000000000008000000,
,
1110,
1110,
1110,
11,
1110,
1110,
1110,
11,//82
#GOGOEND
33000000,
,
,
,
,
,
,
#END

COURSE:Easy
LEVEL:1
BALLOON:8
#START
,
,
,
,
3,
,
,
,
1,
1,
1,
,
1,
1,
500000000000000000000000000000000000000008000000,
,
1,
1,
1,
3,
1,
1,
500000000000000000000000000000000000000008000000,
,//24
#GOGOSTART
11,
1,
11,
1,
11,
1,
11,
1,//32
#GOGOEND
1,
,
11,
1,
1,
,
11,
1,
1,
1,
11,
3,
1,
1,
11,
1,
2,
1,
2,
1,
2,
22,
22,
7,
8,
,//58
#GOGOSTART
11,
1,
11,
1,
11,
11,
500000000000000000000000000000000000000008000000,
,
11,
1,
11,
600000000000000000000000000008000000000000000000,
1,
11,
500000000000000000000000000000000000000008000000,
,
11,
1,
11,
1,
11,
1,
11,
1,//82
#GOGOEND
3,
,
,
,
,
,
,
#END
