//TJADB Project
TITLE:MEGALOVANIA
TITLEJA:MEGALOVANIA
SUBTITLE:--Toby Fox/UNDERTALE
SUBTITLEJA:「UNDERTALE」より
BPM:240
WAVE:MEGALOVANIA.ogg
OFFSET:-2.126
DEMOSTART:16.115 //shinuchi:
4310/3340/2110/1180/890

COURSE:Edit
LEVEL:10
BALLOON:
SCOREINIT:330,930
SCOREDIFF:78
#START
0,
0,
0,
0,
0,
0, //6
11202101,
01010122,
11202101,
01010122, //10
11202101,
01010122,
11202101,
0020004000222020, //14
#GOGOSTART
1110201021102011,
1010201000102120,
1110201021102011,
1010201000101210, //18
1110201021102011,
1010201000102120,
1110201021102010,
40140140, //22
1110201021102011,
1010201000102120,
1110201021102011,
1010201000101210, //26
1110201021102011,
1010201000102120,
1110201021102010,
40140140, //30
#GOGOEND
1000202210202010,
0010201022201110,
1000202210202010,
000000202020200000200000100100200200100000000000, //34
1000202011201020,
1020102010221000,
2010200022102210,
40340340, //38
1000202210222010,
0010201022201110,
1000202210222010,
0010221022101020, //42
1122101022112020,
1122101022112020,
1111201011112010,
40340340, //46
11221122,
2220111022201110,
2212100050000000,
000000000000000000000008000000100100100100100000, //50
2000222011102010,
1120221011202210,
1111200020102010,
40340340, //54
111000111000222000222000,
111000100000222000200000,
111000100100111000100100,
222000200200222000200200, //58
500000000000000000000000000000000008000000000000,
2220111022201110,
500000000000000000000000000000000008000000000000,
40340340, //62
11221122,
2220111022201110,
2212100050000000,
000000000000000000000008000000100100100100100000, //66
2000222011102210,
1120221011202210,
1111200020102010,
40340340, //70
111000111000222000222000,
111000100000222000200000,
111000100100111000100100,
222000200200222000200200, //74
500000000000000000000000000000000008000000000000,
2220111022201110,
500000000000000000000000000000000008000000000000,
40340340, //78
#SCROLL 2
#GOGOSTART
100100100100500000008000100100100100500000008000,
100100100100500000008000200200200200500000008000,
100100100100500000008000100100100100500000008000,
100100100100500000008000200200200200500000008000, //82
#SCROLL 3
1110111011101110,
2220222022202220,
1110222011102220,
1110222011102220, //86
#SCROLL 2
100100100100500000008000200200200200500000008000,
100100100100500000008000200200200200500000008000,
100100100100500000008000200200200200500000008000,
100100100100500000008000200200200200500000008000, //90
#SCROLL 3
1110111011101110,
2220222022202220,
1110222011102220,
1110222011102220, //94
#SCROLL 1
1110201021102011,
1010201020102120,
1110201021102011,
1010201020101210, //98
1110201021102011,
1010201020102120,
1110221021102011,
1010201020101210, //102
1110201021102011,
1010201020102120,
1110201021102011,
1010201020101210, //106
00102001,
02010121,
00102001,
4011104000102010, //110
#GOGOEND
4010222010102010,
1010201010102120,
1010222010102010,
1010201010102120, //114
1010222010102011,
1010201010102120,
1010222010102011,
1010201010102120, //118
1010222010102011,
1010201110102120,
1010222010102011,
1010201110102120, //122
1010222011102011,
1010201110102120,
1010222011102011,
1010201110102120, //126
#SCROLL 0.9
11202001,
01010122,
#SCROLL 0.8
11202001,
01010122, //130
#SCROLL 0.6
11202001,
01010122,
#SCROLL 0.5
11202001,
01010122, //134
#BARLINEOFF
#SCROLL 1
0,
0,
0,
0, //138
#END

COURSE:Oni
LEVEL:9
BALLOON:10,10,2,2,2,2,2,2,2,2,2,2,2,2,2,2,2,2,2,2,2,2,2,2,2,2,2,2,2,2,2,2
SCOREINIT:490,1470
SCOREDIFF:88
#START
0,
0,
0,
0,
0,
0, //6
10101101,
01010111,
20202202,
02020222,
10101101,
01010111,
20202202,
0020002000222020, //14
#GOGOSTART
11101101,
01010111,
11101101,
01010111,
11101101,
01010111,
11101121,
2010201120102020, //22
12203021,
01210121,
11203021,
01210121,
12203021,
01210121,
21203021,
2010201120102020, //30
#GOGOEND
10221221,
01212210,
10221221,
0022101020201000,
10221221,
21212210,
20202121,
20430430, //38
1000202010222010,
0010201022201000,
1000202010222010,
2010201022201000,
2220102011102000,
1110201022201000,
500000000000000000000000000000000008000000100000,
20430430, //46
10201120,
21222121,
2220300050000000,
000000000000000000000008000000200200200000200000,
10221121,
1100220011002200,
1111200020102050,
000000000000000000000000000000000008000000000000, //54
1100110022002200,
1110200011102000,
1111200011122000,
1122200012222000,
500000000000000000000000000000000008000000000000,
22112211,
7,
8, //62
10201120,
21221221,
2220300050000000,
000000000000000000000008000000200200200000200000,
10221121,
1100220011002200,
1111200020102050,
000000000000000000000000000000000008000000000000, //70
1100110022002200,
1110200011102000,
1111200011122000,
1122200012222000,
500000000000000000000000000000000008000000000000,
22112211,
7,
8, //78
#SCROLL 2
#GOGOSTART
500000000008000000000000500000000008000000000000,
500000000008000000000000500000000008000000000000,
600000000008000000000000600000000008000000000000,
600000000008000000000000600000000008000000000000,
#SCROLL 3
700008700008700008700008,
700008700008700008700008,
700008700008700008700008,
700008700008700008000000, //86
#SCROLL 2
500000000008000000000000500000000008000000000000,
500000000008000000000000500000000008000000000000,
600000000008000000000000600000000008000000000000,
600000000008000000000000600000000008000000000000,
#SCROLL 3
700008700008700008700008,
700008700008700008700008,
700008700008700008700008,
700008700008700008000000, //94
#SCROLL 1
11101101,
01010111,
11101101,
01010111,
22202202,
02020222,
21221221,
2022201000202020, //102
11201121,
01210121,
11201121,
01210121,
00404004,
04040222,
00404001,
2010201120102020, //110
#GOGOEND
11221121,
01211120,
11221221,
02211220,
1020100010222010,
0030001011202000,
1020100010221010,
0030002022101000, //118
1010202010102011,
11221120,
1010202010102011,
11221120,
1010222010222010,
2010201110102010,
1010222010222010,
2010201110102020, //126
#SCROLL 0.9
3,
0,
#SCROLL 0.8
22202000,
0,
#SCROLL 0.6
11101000,
0,
#SCROLL 0.5
22202004,
04040222, //134
#BARLINEOFF
#SCROLL 1
0,
0,
0,
0, //138
#END

COURSE:Hard
LEVEL:7
BALLOON:13,9,9,3,3,3,3,3,3,3,3,4
SCOREINIT:620,2510
SCOREDIFF:143
#START
0,
0,
0,
0,
0,
0, //6
1110,
0,
2220,
0,
1110,
0,
2220,
0, //14
#GOGOSTART
11101000,
0,
22202000,
0,
11101000,
0,
22202000,
0, //22
11101003,
03030000,
22202004,
04040000,
11101003,
03030000,
22202004,
04040000, //30
#GOGOEND
10220101,
01010000,
10220101,
01111100,
10220101,
02020100,
20202225,
000000000000000000000000000008000000000000000000, //38
10220101,
01010000,
10220101,
02020110,
2211,
2211,
7,
00000800, //46
1212,
11221122,
11105000,
000000000000000008000000000000200000000000200000,
10221122,
1122,
10202225,
000000000000000000000000000008000000000000000000, //54
1122,
1212,
11201220,
12201120,
500000000000000000000000000000000008000000000000,
22112211,
7,
8, //62
1212,
11221122,
11105000,
000000000000000008000000000000200000000000200000,
10221122,
1122,
10202225,
000000000000000000000000000008000000000000000000, //70
1122,
1212,
11201220,
12201120,
500000000000000000000000000000000008000000000000,
22112211,
9009,
8, //78
#SCROLL 2
#GOGOSTART
500000000008000000000000500000000008000000000000,
500000000008000000000000500000000008000000000000,
600000000008000000000000600000000008000000000000,
600000000008000000000000600000000008000000000000,
6,
0,
000000000000000000000000000000000000000000000008,
0, //86
708708,
708708,
708708,
708708,
6,
0,
000000000000000000000000000000000000000000000008,
0, //94
#SCROLL 1
11103001,
01030000,
11103001,
01030000,
22204002,
02040000,
22204002,
02040000, //102
11103001,
01030000,
11103001,
01030111,
00404004,
04040222,
00404003,
03070080, //110
#GOGOEND
10201120,
11201020,
10201120,
11201020,
10101121,
01201120,
10101121,
01201120, //118
10201120,
11201020,
10201120,
11201020,
11101001,
01010111,
11101001,
01010111, //126
#SCROLL 0.9
3,
0,
#SCROLL 0.8
22202000,
0,
#SCROLL 0.6
11101000,
0,
#SCROLL 0.5
22202004,
04040222, //134
#BARLINEOFF
#SCROLL 1
0,
0,
0,
0, //138
#END

COURSE:Normal
LEVEL:5
BALLOON:11,7,7,2,2,2,2,2,2,2,2,3,4
SCOREINIT:690,3340
SCOREDIFF:155
#START
#SCROLL 0.8
0,
0,
0,
0,
0,
0, //6
11,
0,
22,
0,
11,
0,
22,
0, //14
#GOGOSTART
1110,
0,
2220,
0,
1110,
0,
2220,
0, //22
10101003,
03030000,
20202004,
04040000,
10101003,
03030000,
20202004,
04040000, //30
#GOGOEND
1202,
0202,
1202,
0202,
1202,
0202,
10101005,
000000000000000000000000000008000000000000000000, //38
1202,
0202,
1202,
0202,
500000000000000000000000000008000000000000000000,
500000000000000000000000000008000000000000000000,
7,
00000800, //46
11,
1111,
5,
000000000000000000000008000000000000000000000000,
22,
2222,
5,
000000000000000000000008000000000000000000000000, //54
1111,
22,
12,
12,
500000000000000000000000000008000000000000000000,
2222,
7,
8, //62
11,
1111,
5,
000000000000000000000008000000000000000000000000,
22,
2222,
5,
000000000000000000000008000000000000000000000000, //70
1111,
22,
12,
12,
500000000000000000000000000008000000000000000000,
2222,
9009,
8, //78
#SCROLL 1.5
#GOGOSTART
500000000008000000000000500000000008000000000000,
500000000008000000000000500000000008000000000000,
600000000008000000000000600000000008000000000000,
600000000008000000000000600000000008000000000000,
6,
0,
000000000000000000000000000000000000000000000008,
0, //86
708708,
708708,
708708,
708708,
6,
0,
000000000000000000000000000000000000000000000008,
0, //94
#SCROLL 0.8
10103001,
01030000,
10103001,
01030000,
20204002,
02040000,
20204002,
02040000, //102
10103001,
01030000,
10103001,
01030000,
00404004,
04040000,
00404003,
03070080, //110
#GOGOEND
1102,
0202,
1102,
0202,
1202,
1202,
1202,
1202, //118
1102,
0202,
1102,
0202,
10101001,
01010000,
10101001,
01010000, //126
#SCROLL 0.9
3,
0,
#SCROLL 0.8
1110,
0,
#SCROLL 0.7
3330,
0,
#SCROLL 0.65
40404004,
000000400000000000700000000000000000000000080000, //134
#BARLINEOFF
#SCROLL 0.8
0,
0,
0,
0, //138
#END

COURSE:Easy
LEVEL:4
BALLOON:10,6,6,2,2,2,2,2,2,2,2,3,6
SCOREINIT:530,5360
SCOREDIFF:83
#START
#SCROLL 0.8
0,
0,
0,
0,
0,
0, //6
1,
0,
1,
0,
1,
0,
1,
0, //14
#GOGOSTART
1110,
0,
1110,
0,
1110,
0,
1110,
0, //22
10101005,
000000000000000000000000000008000000000000000000,
10101005,
000000000000000000000000000008000000000000000000,
10101005,
000000000000000000000000000008000000000000000000,
10101005,
000000000000000000000000000008000000000000000000, //30
#GOGOEND
0202,
0202,
0202,
0202,
0202,
0202,
5,
000000000000000000000000000008000000000000000000, //38
1202,
0202,
1202,
0202,
500000000000000000000000000008000000000000000000,
500000000000000000000000000008000000000000000000,
7,
00000800, //46
11,
1110,
5,
000000000000000000000008000000000000000000000000,
22,
2220,
5,
000000000000000000000008000000000000000000000000, //54
11,
22,
12,
12,
500000000000000000000000000008000000000000000000,
1111,
7,
8, //62
11,
1110,
5,
000000000000000000000008000000000000000000000000,
22,
2220,
5,
000000000000000000000008000000000000000000000000, //70
11,
22,
12,
12,
500000000000000000000000000008000000000000000000,
1111,
9009,
8, //78
#GOGOSTART
500000000008000000000000500000000008000000000000,
500000000008000000000000500000000008000000000000,
600000000008000000000000600000000008000000000000,
600000000008000000000000600000000008000000000000,
6,
0,
000000000000000000000000000000000000000000000008,
0, //86
708708,
708708,
708708,
708708,
6,
0,
000000000000000000000000000000000000000000000008,
0, //94
10103001,
01010000,
10103001,
01010000,
20204002,
02020000,
20204002,
02020000, //102
10103001,
01010000,
10103001,
01010000,
00404004,
04040000,
00404003,
03070080, //110
#GOGOEND
0202,
0202,
0202,
0202,
1102,
1102,
1102,
1102, //118
0202,
0202,
0202,
0202,
10101005,
000000000000000000000000000008000000000000000000,
10101005,
000000000000000000000000000008000000000000000000, //126
#SCROLL 0.9
3,
0,
#SCROLL 0.8
1110,
0,
#SCROLL 0.7
3330,
0,
#SCROLL 0.65
30303007,
000000000000000000000000000000000000000000080000, //134
#BARLINEOFF
#SCROLL 0.8
0,
0,
0,
0, //138
#END
