//TJADB Project
TITLE:Ai ni Dekiru-koto wa Mada Aru Kai
TITLEJA:愛にできることはまだあるかい
SUBTITLE:--RADWIMPS/Weathering with You
SUBTITLEJA:「天気の子」より
BPM:71
WAVE:Ai ni Dekiru-koto wa Mada Aru Kai.ogg
OFFSET:-3.503
DEMOSTART:102.763

COURSE:Edit
LEVEL:8
SCOREINIT:740
SCOREDIFF:208
#START
10100000100000001011101020200000,
1102100010102200,
10100022100000001000000020200000,
10100022102000001000001020000000,
10100022100020001020101020102022,
1102102212112120,
10100022100020001020101020102000,
10100022100020201020101020202000,
10102022100000001000101120102020,
10102000100020201011101120102000,
10102022100020221000100020102020,
1120102210112020,
10101000200010201010100020002022,
1110201211112020,
10101022200010201010101020102000,
10101022200010201010101120001011,
10002010200010201010102220001000,
10002011200010201000100020001000,
1021201210102010,
#MEASURE 2/4
2022202000000000,
#MEASURE 4/4
#SCROLL 1.5
30001010201110101020101120101110,
200000000100100000100100200000000000100000002000200000001000200010001000200020002000200010001000,
#GOGOSTART
#SCROLL 2
1022102112101220,
1022102112102120,
1022102112101220,
10002020100020101020100220201020,
1022102112101220,
1022102112102120,
1022102112101220,
10002020301020201022001120203040,
#SCROLL 3
3022102112101220,
10002020100020112010100040001010,
3022102112101220,
100000200000100000000000200200100100100100100100000000000000000000000000600000000000000080000000,
#GOGOEND
3,
#END

COURSE:Oni
LEVEL:5
BALLOON:25,16
SCOREINIT:930
SCOREDIFF:273
#START
1110201100002010,
1110201100002010,
1110201100002010,
100100100000200020002000200000000000200000200000,
1110201100002010,
1110201100002010,
1110201100002010,
1110202200002020,
1110201110002010,
100100100000200020002000200000000000200000100000,
1110201110002010,
1110201110002020,
1111201110002010,
1111201110002010,
1111201110002010,
1111201110002011,
1011201110112011,
1011201120002011,
1011201110112011,
#MEASURE 2/4
20220000,
#MEASURE 4/4
7008,
,
#GOGOSTART
3011202210112010,
1011201120001111,
1011202210112010,
100000100100200000100000500000000008000000000000,
1011202210112011,
1011201120001111,
1011202210112011,
100000100100200000100000500000000008000000000000,
3011201110112011,
1011201120002011,
1011201110112011,
100000100100200000100000700000000000000000000008,
#GOGOEND
#END

COURSE:Hard
LEVEL:4
BALLOON:23,30
SCOREINIT:1090
SCOREDIFF:280
#START
11102000,
11102000,
11102000,
11102000,
22201000,
22201000,
22201000,
22201000,
11102020,
11102020,
22201010,
22201010,
1110101020002000,
1110101020002000,
2220202010001000,
2220202010001000,
1011102010111000,
1011101020002000,
1011102010111000,
#MEASURE 2/4
3300,
#MEASURE 4/4
7008,
,//22
#GOGOSTART
1011101110111000,
1011101110002000,
1011101110111000,
500000000000000000000000000008000000000000000000,
1011101110111000,
1011101110002000,
1011101110111000,
500000000000000000000000000008000000000000000000,
1011102010111020,
1011101020002000,
1011102010111020,
7,//34
#GOGOEND
8,
,
#END

COURSE:Normal
LEVEL:2
BALLOON:15,20
#START
12,
12,
12,
12,
21,
21,
21,
21,
1120,
1120,
2210,
2210,
10112000,
10112000,
20221000,
20221000,
10201120,
11102000,
10201120,
#MEASURE 2/4
3300,
#MEASURE 4/4
7008,
,//22
#GOGOSTART
10101120,
10112000,
10101120,
500000000000000000000000000008000000000000000000,
10101120,
10112000,
10101120,
500000000000000000000000000008000000000000000000,
30201120,
11102000,
30201120,
7,//34
#GOGOEND
8,
,
#END

COURSE:Easy
LEVEL:2
BALLOON:12,16
#START
1,
1,
1,
1,
2,
2,
2,
2,
11,
11,
22,
22,
1110,
1110,
2220,
2220,
1111,
1120,
1111,
#MEASURE 2/4
3,
#MEASURE 4/4
7008,
,//22
#GOGOSTART
1111,
1110,
1111,
500000000000000000000000000008000000000000000000,
1111,
1110,
1111,
500000000000000000000000000008000000000000000000,
3333,
4440,
3333,
7,//34
#GOGOEND
8,
,
#END
