//TJADB Project
TITLE:Flight of the Bumblebee
TITLEJA:熊蜂の飛行
SUBTITLE:--Nikolai Andreevich Rimsky-Korsakov
SUBTITLEJA:リムスキー=コルサコフ
BPM:150.84
WAVE:Flight of the Bumblebee.ogg
OFFSET:-2.044
DEMOSTART:48.425

COURSE:Oni
LEVEL:9
SCOREINIT:500
SCOREDIFF:120
#START
2211221122112211,
#BPMCHANGE 150
2211221122112211,
1110221011102210,
1110221011102210,
1110112211102210,
1110112211102210,
1110221011102210,
2211121120001000,
2211121120001000,
2211221110002000,
#BPMCHANGE 149.2
2211221110002211,
#BPMCHANGE 150
2000111120222020,
1000111120222020,
1011200010111020,
1110200011102000,
3000111120222020,
1000111120222000,
1011200010112222,
1110200011102000,
#BPMCHANGE 149.05
2211221120002000,
#BPMCHANGE 149.8
2211221110002000,
#BPMCHANGE 151.17
2211221122112211,
#BPMCHANGE 151.3
1011201120112011,
#BPMCHANGE 149.36
2011201120112011,
#BPMCHANGE 150.79
2,
#BPMCHANGE 150.07
0022202220222022,
2022202220222022,
2,
#BPMCHANGE 148.39
1211221120222020,
#GOGOSTART
#BPMCHANGE 150
2211121122221120,
2211121122221120,
2211221111221210,
2211221111221120,
2211121122112220,
2211121122112220,
2211221111221210,
2211221122112221,
2111122121112221,
2111122121112221,
#GOGOEND
2022112210002000,
1122112220002000,
2022112210002000,
23,
#GOGOSTART
2222111122221111,
2222111122221111,
#GOGOEND
2011221120002000,
1122112222112211,
2211221120002000,
1111222212111212,
#GOGOSTART
2211221122112211,
2211221122112211,
1011200010101020,
2011200030303040,
#GOGOEND
#BPMCHANGE 147.72
4,
#BPMCHANGE 134.23
22,
#BPMCHANGE 116.79
24,
#BPMCHANGE 116
3,
#END

COURSE:Hard
LEVEL:7
BALLOON:15
SCOREINIT:700
SCOREDIFF:198
#START
7,
#BPMCHANGE 150
,
8,
1110111010001000,
1110111010001000,
1110111010002000,
1110111010002000,
2220222020002000,
2220222020002000,
1110111010002000,
#BPMCHANGE 149.2
1110111010002220,
#BPMCHANGE 150
2000000000222020,
1000000000222000,
1011100010111000,
1111,
3000000020222020,
1000000020222000,
1011100010111010,
1111,
#BPMCHANGE 149.05
2220222020002000,
#BPMCHANGE 149.8
2220222020002000,
#BPMCHANGE 151.17
1110100011101000,
#BPMCHANGE 151.3
1022202220222020,
#BPMCHANGE 149.36
2022202220222020,
#BPMCHANGE 150.79
2,
#BPMCHANGE 150.07
00221012,
20221012,
2,
#BPMCHANGE 148.39
500000000000000000000000000000000008000000000000,//29
#BPMCHANGE 150.05
#GOGOSTART
1110111011101000,
1111100010111000,
1110111011101000,
1111100010111000,
2220222022202000,
2222200020222000,
2220222022202000,
2222200020222000,
1011100010111000,
1011100010111000,//39
#GOGOEND
10121210,
10121010,
10121210,
10121020,//43
#GOGOSTART
1111100022222000,
1111100022222000,//45
#GOGOEND
30011020,
10012020,
10011020,
500000000000000000000000000000000008000000000000,//49
#GOGOSTART
2220222011101110,
2220222011101110,
1011100010102020,
1011100030303030,//53
#GOGOEND
#BPMCHANGE 147.75
3,
#BPMCHANGE 134.23
22,
#BPMCHANGE 116.79
24,
#BPMCHANGE 116
3,
,
,
#END

COURSE:Normal
LEVEL:4
BALLOON:10,5
#START
7,
#BPMCHANGE 150
,
8,
1012,
1012,
1212,
1,
2022,
2022,
1011,
#BPMCHANGE 149.2
1011,
#BPMCHANGE 150
1012,
1012,
11,
1111,
3012,
1012,
11,
11,
#BPMCHANGE 149.05
2022,
#BPMCHANGE 149.8
2111,
#BPMCHANGE 151.17
2011,
#BPMCHANGE 151.3
5,
#BPMCHANGE 149.36
000000000000000000000000000000000000000000000008,
#BPMCHANGE 150.79
,
#BPMCHANGE 150.07
0202,
0202,
,
#BPMCHANGE 148.39
500000000000000000000000000000000008000000000000,//29
#BPMCHANGE 150.05
#GOGOSTART
1011,
1011,
1111,
11,
2022,
2022,
2222,
22,
11003000,
11003000,//39
#GOGOEND
4002,
2002,
2002,
2002,//43
#GOGOSTART
22001010,
22001010,//45
#GOGOEND
2002,
2002,
2002,
500000000000000000000000000000000008000000000000,//49
#GOGOSTART
2211,
2211,
7,
8033,//53
#GOGOEND
#BPMCHANGE 147.75
3,
#BPMCHANGE 134.23
22,
#BPMCHANGE 116.79
24,
#BPMCHANGE 116
3,
,
,
#END

COURSE:Easy
LEVEL:3
BALLOON:6,5
SCOREINIT:870
SCOREDIFF:270
#START
9,
#BPMCHANGE 150
09,
8,
1011,
1011,
1011,
1,
2022,
2022,
2022,
#BPMCHANGE 149.2
2022,
#BPMCHANGE 150
22,
12,
11,
11,
32,
12,
11,
1110,
#BPMCHANGE 149.05
2022,
#BPMCHANGE 149.8
2022,
#BPMCHANGE 151.17
2022,
#BPMCHANGE 151.3
5,
#BPMCHANGE 149.36
000000000000000000000000000000000000000000000008,
#BPMCHANGE 150.79
,
#BPMCHANGE 150.07
0202,
0202,
,
#BPMCHANGE 148.39
500000000000000000000000000000000008000000000000,//29
#BPMCHANGE 150.05
#GOGOSTART
1011,
11,
1111,
11,
2022,
22,
2222,
22,
13,
13,//39
#GOGOEND
4002,
2002,
2002,
2002,//43
#GOGOSTART
2011,
2011,//45
#GOGOEND
2002,
2002,
2002,
500000000000000000000000000000000008000000000000,//49
#GOGOSTART
2220,
1110,
7,
8033,//53
#GOGOEND
#BPMCHANGE 147.75
3,
#BPMCHANGE 134.23
22,
#BPMCHANGE 116.79
24,
#BPMCHANGE 116
3,
,
,
#END
