//TJADB Project
TITLE:Waraeru 2000
TITLEJA:わら得る2000
SUBTITLE:--Linda AI-CUE
BPM:216
WAVE:Waraeru 2000.ogg
OFFSET:-1.221
DEMOSTART:14.542

COURSE:Oni
LEVEL:10
BALLOON:6,6,6,6,6,6,6,938,8
SCOREINIT:430
SCOREDIFF:105
#START
#MEASURE 1/32
#SCROLL 10.0
0,
#SCROLL 9.9
0,
#SCROLL 9.8
0,
#SCROLL 9.7
0,
#SCROLL 9.6
0,
#SCROLL 9.5
0,
#SCROLL 9.4
0,
#SCROLL 9.3
0,
#SCROLL 9.2
0,
#SCROLL 9.1
0,
#SCROLL 9.0
0,
#SCROLL 8.9
0,
#SCROLL 8.8
0,
#SCROLL 8.7
0,
#SCROLL 8.6
0,
#SCROLL 8.5
0,
#SCROLL 8.4
0,
#SCROLL 8.3
0,
#SCROLL 8.2
0,
#SCROLL 8.1
0,
#SCROLL 8.0
0,
#SCROLL 7.9
0,
#SCROLL 7.8
0,
#SCROLL 7.7
0,
#SCROLL 7.6
0,
#SCROLL 7.5
0,
#SCROLL 7.4
0,
#SCROLL 7.3
0,
#SCROLL 7.2
0,
#SCROLL 7.1
0,
#SCROLL 7.0
0,
#SCROLL 6.9
0, //
#SCROLL 6.8
0,
#SCROLL 6.7
0,
#SCROLL 6.6
0,
#SCROLL 6.5
0,
#SCROLL 6.4
0,
#SCROLL 6.3
0,
#SCROLL 6.2
0,
#SCROLL 6.1
0,
#SCROLL 6.0
0,
#SCROLL 5.9
0,
#SCROLL 5.8
0,
#SCROLL 5.7
0,
#SCROLL 5.6
0,
#SCROLL 5.5
0,
#SCROLL 5.4
0,
#SCROLL 5.3
0,
#MEASURE 1/16
#SCROLL 5.2
0,
#SCROLL 5.1
0,
#SCROLL 5.0
0,
#SCROLL 4.9
0,
#SCROLL 4.8
0,
#SCROLL 4.7
0,
#SCROLL 4.6
0,
#SCROLL 4.5
0, //
#SCROLL 4.4
0,
#SCROLL 4.3
0,
#SCROLL 4.2
0,
#SCROLL 4.1
0,
#SCROLL 4.0
0,
#SCROLL 3.9
0,
#SCROLL 3.8
0,
#SCROLL 3.7
0,
#SCROLL 3.6
0,
#SCROLL 3.5
0,
#SCROLL 3.4
0,
#SCROLL 3.3
0,
#SCROLL 3.2
0,
#SCROLL 3.1
0,
#SCROLL 3.0
0,
#SCROLL 2.65
0,
#SCROLL 2.34
0,
#SCROLL 2.07
0,
#SCROLL 1.82
0,
#SCROLL 1.61
0,
#SCROLL 1.42
0,
#SCROLL 1.26
0,
#SCROLL 1.11
0,
#SCROLL 0.98
0,
#MEASURE 3/8
#SCROLL 0.95
0, //
#MEASURE 1/16
#SCROLL 0.7
0,
0,
0,
#SCROLL 0.68
0,
0,
0,
0,
#SCROLL 0.66
0,
#MEASURE 1/4
#SCROLL 0.64
0,
#MEASURE 1/12
#SCROLL 0.5
0,
0,
#MEASURE 4/12
0,
#MEASURE 1/24
#SCROLL 1.11
0,
0,
0,
0,
#MEASURE 65/24
000000000000
000000000000
000000000000
000000000000
00000
#SCROLL 2.0
200020001000,
#MEASURE 4/4
#SCROLL 1.0
102010120000,
102010120000,
102010120000,
121
#SCROLL 2.0
221,
#SCROLL 1.0
100200201200
100200200200,
100200201200
100200200200,
100200201200
100200200200,
100200201200
#SCROLL 2.0
200020001000,
#SCROLL 1.0
2000222220202222,
2222200022222002,
2000222220202222,
2222202000200020,
2000222220202222,
2222200022222000,
#MEASURE 8/4
2000222220202222
#SCROLL 5
0000000070000080,
#MEASURE 4/4
#SCROLL 1.0
100000002000
000010000000
100020000000
200200200200,
100000002000
000010000000
100020000000
200200200200,
100000002000
000010000000
100020000000
200200200200,
121
#SCROLL 2.0
221,
#SCROLL 1.0
100000000000
200010200200
100000200000
200200200200,
100200200200
200010000000
100200200200
200200000000,
#MEASURE 8/4
100000000000
200010200200
100000200000
200200200200
000000000000
000000000000
000000000000
100000200000,
#MEASURE 4/4
12121212,
12121212,
12121212,
100200100200
100200100200
#SCROLL 2.0
200000002000
000010000000,
#SCROLL 1.2
1212121212121212,
#SCROLL 1.4
1212121212121212,
#SCROLL 1.6
#MEASURE 8/4
1111222211112222
00000000
#SCROLL 5
70000080,
#MEASURE 4/4
#SCROLL 1
1000201210201210,
2121201021212000,
1000201210201210,
2121201021212010,
2000102120102120,
1212102012121000,
2000102120102120,
100200100200
100000200000
#SCROLL 2.0
200000002000
000010000000,
#MEASURE 1/4
#SCROLL 1.0
3,
0,
#SCROLL 0.6
0,
#SCROLL 0.93
0,
#SCROLL 0.67
0,
#SCROLL 0.88
0,
#SCROLL 0.78
0,
#SCROLL 0.83
0,
#SCROLL 0.87
0,
#SCROLL 0.78
0,
#SCROLL 0.99
0,
#SCROLL 0.74
0,
#SCROLL 1.08
0,
#SCROLL 0.68
0,
#SCROLL 1.18
0,
#SCROLL 0.62
0,
#MEASURE 4/4
#SCROLL 4.0
5008
#SCROLL 8.0
7008,
#SCROLL 4.0
5008
#SCROLL 8.0
7008,
#MEASURE 8/4
#SCROLL 4.0
5008
#SCROLL 8.0
7008
0000
#SCROLL 5
7008,
#MEASURE 1/4
#SCROLL 1.0
0,
#SCROLL 0.97
0,
#SCROLL 0.57
0,
#SCROLL 0.94
0,
#SCROLL 0.69
0,
#SCROLL 0.87
0,
#SCROLL 0.76
0,
#SCROLL 0.81
0,
#SCROLL 0.87
0,
#SCROLL 0.77
0,
#SCROLL 0.97
0,
#SCROLL 0.71
0,
#SCROLL 1.07
0,
#SCROLL 0.66
0,
#SCROLL 1.16
#MEASURE 2/4
#SCROLL 1.0
00000222,
#MEASURE 4/4
1111112222111111,
1212221221212221,
#MEASURE 8/4
2111111221111112
#SCROLL 5.0
0000000070000080,
#MEASURE 4/4
#SCROLL 1.0
100000100000
200000200000
100020000000
200200200200,
100000200000
200000100000
100020000000
200200200200,
100000200000
100000100000
100020000000
200200200200,
100200200100
#SCROLL 2.0
200020001000,
#SCROLL 1.0
100200201200
101200200200,
100200201200
101200200
#SCROLL 2.0
300,
#SCROLL 1.0
100200201200
101200200200,
100200201200
#SCROLL 2.0
200020001000,
#SCROLL 1.0
100000200000
200010200000
100010200000
200200200200,
100000200000
200010200000
100010200000
200200200200,
100000200000
200010200000
100010200000
200200200200,
100200201200
#SCROLL 2.0
200020001000,
#SCROLL 1.0
20002222
#SCROLL 1.02
10
#SCROLL 1.0
2
#SCROLL 1.03
1
#SCROLL 1.0
22
#SCROLL 1.04
1
#SCROLL 1.0
2,
2
#SCROLL 1.05
1
#SCROLL 1.0
22
#SCROLL 1.06
1000
#SCROLL 1.07
1
#SCROLL 1.0
22
#SCROLL 1.08
1
#SCROLL 1.0
20
#SCROLL 1.09
10,
#SCROLL 1.0
2
#SCROLL 1.1
100
#SCROLL 1.0
2
#SCROLL 1.11
1
#SCROLL 1.0
22
#SCROLL 1.12
10
#SCROLL 1.0
2
#SCROLL 1.13
1
#SCROLL 1.0
2220,
#SCROLL 2.0
4444,
#BPMCHANGE 13.5
#SCROLL 0.67
#BARLINEOFF
#MEASURE 1/64
3,
#MEASURE 3/4
#BPMCHANGE 216
#SCROLL 1.0
000012002220,
#MEASURE 4/4
#BARLINEON
1022022012202020,
1220200210202022,
1022020202021020,
#GOGOSTART
12121212,
#SCROLL 1.5
1212121212121212,
#SCROLL 2.0
#MEASURE 8/4
1111111111111111
1000200010002000
#GOGOEND
0000000000000000
0000000000000000,
#SCROLL 1.5
#MEASURE 4/4
7,
0,
0,
00000008,
#MEASURE 2/4
#GOGOSTART
#SCROLL 1
1212,
#SCROLL 1.5
12121212,
#SCROLL 2.0
11111111,
#MEASURE 6/4
#SCROLL 2.5
700000000000
000000000008
#GOGOEND
000000000000
000000000000
000000000000
000000000000,
#MEASURE 4/4
#SCROLL 1.0
200000200200
200200200000
#SCROLL 2.0
200000002000
000010000000,
#SCROLL 1.0
#GOGOSTART
100000000200
200010200200
100000200000
200200200200,
100000200000
200010200200
100000200000
200000200000,
100000201000
100000200200,
100200201000
#SCROLL 2.0
200020001000,
#SCROLL 1.0
100000000200
200010200200
100000200000
200200200200,
100000200000
200010200200
100000200000
200000200000,
100000200000
200010200200
100000200000
200000200000,
100200201000
#SCROLL 2.0
200020001000,
#SCROLL 1.0
2222101010122220,
100000200200
200200100000
100202020200
100202020200,
#MEASURE 8/4
#SCROLL 2.0
500000000800
#SCROLL 3.0
500000000800
#SCROLL 4.0
600000000800
#SCROLL 5.0
600000000800
#SCROLL 6.0
600000000800
000000000000
#SCROLL 2.0
#GOGOEND
200000002000
000010000000,
#SCROLL 1.0
#MEASURE 4/4
#GOGOSTART
101010001010
201210201210,
101010001010
201210201210,
10002222,
#MEASURE 2/4
000000000000
000000
#SCROLL 10
500080,
#MEASURE 4/4
#BARLINEOFF
#GOGOEND
#BPMCHANGE 62.52
#SCROLL 1
00000001,
#END

COURSE:Hard
LEVEL:8
BALLOON:4,4,4,4,4,4,4,721,6
SCOREINIT:420
SCOREDIFF:108
#START
#MEASURE 1/32
#SCROLL 10
,
#SCROLL 9.9
,
#SCROLL 9.8
,
#SCROLL 9.7
,
#SCROLL 9.6
,
#SCROLL 9.5
,
#SCROLL 9.4
,
#SCROLL 9.3
,
#SCROLL 9.2
,
#SCROLL 9.1
,
#SCROLL 9
,
#SCROLL 8.9
,
#SCROLL 8.8
,
#SCROLL 8.7
,
#SCROLL 8.6
,
#SCROLL 8.5
,
#SCROLL 8.4
,
#SCROLL 8.3
,
#SCROLL 8.2
,
#SCROLL 8.1
,
#SCROLL 8
,
#SCROLL 7.9
,
#SCROLL 7.8
,
#SCROLL 7.7
,
#SCROLL 7.6
,
#SCROLL 7.5
,
#SCROLL 7.4
,
#SCROLL 7.3
,
#SCROLL 7.2
,
#SCROLL 7.1
,
#SCROLL 7
,
#SCROLL 6.9
,
#SCROLL 6.8
,
#SCROLL 6.7
,
#SCROLL 6.6
,
#SCROLL 6.5
,
#SCROLL 6.4
,
#SCROLL 6.3
,
#SCROLL 6.2
,
#SCROLL 6.1
,
#SCROLL 6
,
#SCROLL 5.9
,
#SCROLL 5.8
,
#SCROLL 5.7
,
#SCROLL 5.6
,
#SCROLL 5.5
,
#SCROLL 5.4
,
#SCROLL 5.3
,
#MEASURE 1/16
#SCROLL 5.2
,
#SCROLL 5.1
,
#SCROLL 5
,
#SCROLL 4.9
,
#SCROLL 4.8
,
#SCROLL 4.7
,
#SCROLL 4.6
,
#SCROLL 4.5
,
#SCROLL 4.4
,
#SCROLL 4.3
,
#SCROLL 4.2
,
#SCROLL 4.1
,
#SCROLL 4
,
#SCROLL 3.9
,
#SCROLL 3.8
,
#SCROLL 3.7
,
#SCROLL 3.6
,
#SCROLL 3.5
,
#SCROLL 3.4
,
#SCROLL 3.3
,
#SCROLL 3.2
,
#SCROLL 3.1
,
#SCROLL 3
,
#SCROLL 2.65
,
#SCROLL 2.34
,
#SCROLL 2.07
,
#SCROLL 1.82
,
#SCROLL 1.61
,
#SCROLL 1.42
,
#SCROLL 1.26
,
#SCROLL 1.11
,
#SCROLL 1
,
#MEASURE 2/4
#SCROLL 0.98
,
#MEASURE 1/16
#SCROLL 0.7
,
,
,
#SCROLL 0.68
,
,
,
#SCROLL 0.66
,
,
#MEASURE 1/4
#SCROLL 0.64
,
#MEASURE 1/16
#SCROLL 0.5
,
,
#MEASURE 3/8
,
#MEASURE 1/32
#SCROLL 1.11
,
,
,
,
#MEASURE 5/8
,
#MEASURE 4/4
#BARLINEOFF
,
000
#SCROLL 1.5
221,
#BARLINEON
#MEASURE 4/4
#SCROLL 1
121100,
121100,
121100,
121
#SCROLL 1.5
221,
#SCROLL 1
100020001000100200200200,
100020001000100200200200,
100020001000100200200200,
121
#SCROLL 1.5
221,
#SCROLL 1
2000222220002222,
2020200022222000,
2000222220002222,
22220202,
2000222220002222,
2020200022222000,
2000222220002222,
#SCROLL 5
#BARLINEOFF
00007008,
#BARLINEON
#SCROLL 1
100000002000000010000000100000000000200200200200,
100000002000000010000000100000000000200200200200,
100000002000000010000000100000000000200200200200,
121
#SCROLL 1.5
221,
#SCROLL 1
100000002000000010000000100000200000200200200200,
100000002000000010000000100000200000200200200200,
100000002000000010000000100000200000200200200200,
#BARLINEOFF
00000012,
#BARLINEON
12121212,
12121212,
12121212,
300300300300
#SCROLL 1.5
200020001000,
#SCROLL 1.105
11111111,
#SCROLL 1.21
22222222,
#SCROLL 1.295
5,
#BARLINEOFF
#SCROLL 5
8078,
#BARLINEON
#SCROLL 1
1000212120001212,
1020100021212000,
1000212120001212,
1020100021212010,
2000121210002121,
2010200012121000,
2000121210002121,
200100200000
#SCROLL 1.5
200020001000,
#SCROLL 1
#MEASURE 1/4
3,
,
#SCROLL 0.6
,
#SCROLL 0.93
,
#SCROLL 0.67
,
#SCROLL 0.88
,
#SCROLL 0.78
,
#SCROLL 0.83
,
#SCROLL 0.87
,
#SCROLL 0.78
,
#SCROLL 0.99
,
#SCROLL 0.74
,
#SCROLL 1.08
,
#SCROLL 0.68
,
#SCROLL 1.18
,
#SCROLL 0.62
,
#MEASURE 4/4
#SCROLL 4
5000000000000008
#SCROLL 8
7000000000008000,
#SCROLL 4
5000000000000008
#SCROLL 8
7000000000008000,
#SCROLL 4
5000000000000008
#SCROLL 8
7000000000008000,
#BARLINEOFF
#SCROLL 5
00007008,
#BARLINEON
#SCROLL 1
#MEASURE 1/4
,
#SCROLL 0.97
,
#SCROLL 0.57
,
#SCROLL 0.94
,
#SCROLL 0.69
,
#SCROLL 0.87
,
#SCROLL 0.76
,
#SCROLL 0.81
,
#SCROLL 0.87
,
#SCROLL 0.77
,
#SCROLL 0.97
,
#SCROLL 0.71
,
#SCROLL 1.07
,
#SCROLL 0.66
,
#SCROLL 1.16
#MEASURE 2/4
,
#SCROLL 1
#MEASURE 4/4
1100111011101110,
01111111,
1110111011101110,
#SCROLL 5
#BARLINEOFF
00007008,
#BARLINEON
#SCROLL 1
1010202010002222,
1020201010002222,
1020101010002222,
100200200100
#SCROLL 1.5
200020001000,
#SCROLL 1
1020222010200000,
10201110102000
#SCROLL 1.5
30,
#SCROLL 1
1020222010200000,
100000200000100100100000
#SCROLL 1.5
200000002000000010000000,
#SCROLL 1
1020222010200020,
1020111020102020,
1020222010200020,
100000200000100100100000
#SCROLL 1.5
200000002000000010000000,
#SCROLL 1
2000222210010010,
0100100010010010,
0100010010010000,
#SCROLL 1.5
4444,
#BPMCHANGE 6.75
#SCROLL 1.32
#BARLINEOFF
#MEASURE 1/128
3,
#MEASURE 3/4
#BPMCHANGE 216
#SCROLL 1
000012002020,
#MEASURE 4/4
#BARLINEON
1010001012100000,
1020202012002020,
10000012,
#GOGOSTART
12121212,
#SCROLL 1.5
1010101011111111,
#SCROLL 2
50081212,
#GOGOEND
#SCROLL 9999
,
#SCROLL 1.5
7,
,
,
0008,
#SCROLL 1
#GOGOSTART
#MEASURE 2/4
1111,
#SCROLL 1.25
2222,
#SCROLL 1.5
11111111,
#SCROLL 2.5
7000000000000008,
#GOGOEND
#SCROLL 9999
#MEASURE 4/4
,
#SCROLL 1
000
#SCROLL 1.5
221,
#SCROLL 1
#GOGOSTART
1020202210200020,
1020202210202020,
10201022,
100200200000
#SCROLL 1.5
200020001000,
#SCROLL 1
1020202210200020,
1020202210202020,
1020202210200020,
100200200000
#SCROLL 1.5
200020001000,
#SCROLL 1
2222000000022220,
0022220002220222,
#SCROLL 2
500000000008
#SCROLL 3
500000000008
#SCROLL 4
600000000008
#SCROLL 5
600000000008,
#BARLINEOFF
#SCROLL 6
600800
#SCROLL 2
#GOGOEND
202010,
#BARLINEON
#SCROLL 1
#GOGOSTART
101010001010100200100200,
101010001010100200100200,
10001212,
#MEASURE 2/4
000
#GOGOEND
#SCROLL 10
5,
#BPMCHANGE 62.52
#MEASURE 4/4
#BARLINEOFF
#SCROLL 1
80000001,
#END

COURSE:Normal
LEVEL:7
BALLOON:4,3,3,3,3,3,3,583,4
SCOREINIT:540
SCOREDIFF:135
#START
#MEASURE 1/32
#SCROLL 10
,
#SCROLL 9.9
,
#SCROLL 9.8
,
#SCROLL 9.7
,
#SCROLL 9.6
,
#SCROLL 9.5
,
#SCROLL 9.4
,
#SCROLL 9.3
,
#SCROLL 9.2
,
#SCROLL 9.1
,
#SCROLL 9
,
#SCROLL 8.9
,
#SCROLL 8.8
,
#SCROLL 8.7
,
#SCROLL 8.6
,
#SCROLL 8.5
,
#SCROLL 8.4
,
#SCROLL 8.3
,
#SCROLL 8.2
,
#SCROLL 8.1
,
#SCROLL 8
,
#SCROLL 7.9
,
#SCROLL 7.8
,
#SCROLL 7.7
,
#SCROLL 7.6
,
#SCROLL 7.5
,
#SCROLL 7.4
,
#SCROLL 7.3
,
#SCROLL 7.2
,
#SCROLL 7.1
,
#SCROLL 7
,
#SCROLL 6.9
,
#SCROLL 6.8
,
#SCROLL 6.7
,
#SCROLL 6.6
,
#SCROLL 6.5
,
#SCROLL 6.4
,
#SCROLL 6.3
,
#SCROLL 6.2
,
#SCROLL 6.1
,
#SCROLL 6
,
#SCROLL 5.9
,
#SCROLL 5.8
,
#SCROLL 5.7
,
#SCROLL 5.6
,
#SCROLL 5.5
,
#SCROLL 5.4
,
#SCROLL 5.3
,
#MEASURE 1/16
#SCROLL 5.2
,
#SCROLL 5.1
,
#SCROLL 5
,
#SCROLL 4.9
,
#SCROLL 4.8
,
#SCROLL 4.7
,
#SCROLL 4.6
,
#SCROLL 4.5
,
#SCROLL 4.4
,
#SCROLL 4.3
,
#SCROLL 4.2
,
#SCROLL 4.1
,
#SCROLL 4
,
#SCROLL 3.9
,
#SCROLL 3.8
,
#SCROLL 3.7
,
#SCROLL 3.6
,
#SCROLL 3.5
,
#SCROLL 3.4
,
#SCROLL 3.3
,
#SCROLL 3.2
,
#SCROLL 3.1
,
#SCROLL 3
,
#SCROLL 2.65
,
#SCROLL 2.34
,
#SCROLL 2.07
,
#SCROLL 1.82
,
#SCROLL 1.61
,
#SCROLL 1.42
,
#SCROLL 1.26
,
#SCROLL 1.11
,
#SCROLL 1
,
#MEASURE 2/4
#SCROLL 0.98
,
#MEASURE 1/16
#SCROLL 0.7
,
,
,
#SCROLL 0.68
,
,
,
#SCROLL 0.66
,
,
#MEASURE 1/4
#SCROLL 0.64
,
#MEASURE 1/16
#SCROLL 0.5
,
,
#MEASURE 3/8
,
#MEASURE 1/32
#SCROLL 1.11
,
,
,
,
#MEASURE 5/8
,
#MEASURE 4/4
#BARLINEOFF
,
000
#SCROLL 1
221,
#BARLINEON
101100,
101100,
101100,
101221,
101100,
101100,
101100,
101221,
20222022,
22202220,
20222022,
22220202,
20222022,
22202220,
20222022,
#SCROLL 5
#BARLINEOFF
00007008,
#BARLINEON
#SCROLL 1
100000000000000010000000100000000000200200000000,
100000000000000010000000100000000000200200000000,
100000000000000010000000100000000000200200000000,
101221,
100000000000000010000000100000000000200200000000,
100000000000000010000000100000000000200200000000,
100000000000000010000000100000000000200200000000,
#BARLINEOFF
,
#BARLINEON
1111,
1111,
1111,
100100100100200020001000,
#SCROLL 1.105
11111111,
#SCROLL 1.21
22222222,
#SCROLL 1.295
11221122,
#BARLINEOFF
#SCROLL 5
00007008,
#BARLINEON
#SCROLL 1
10212012,
12102120,
10212012,
12102121,
20121021,
21201210,
20121021,
200100200000200020001000,
#SCROLL 1
#MEASURE 1/4
3,
,
#SCROLL 0.6
,
#SCROLL 0.93
,
#SCROLL 0.67
,
#SCROLL 0.88
,
#SCROLL 0.78
,
#SCROLL 0.83
,
#SCROLL 0.87
,
#SCROLL 0.78
,
#SCROLL 0.99
,
#SCROLL 0.74
,
#SCROLL 1.08
,
#SCROLL 0.68
,
#SCROLL 1.18
,
#SCROLL 0.62
,
#MEASURE 4/4
#SCROLL 4
5000000000000008
#SCROLL 8
7000000000008000,
#SCROLL 4
5000000000000008
#SCROLL 8
7000000000008000,
#SCROLL 4
5000000000000008
#SCROLL 8
7000000000008000,
#BARLINEOFF
#SCROLL 5
00007008,
#BARLINEON
#SCROLL 1
#MEASURE 1/4
,
#SCROLL 0.97
,
#SCROLL 0.57
,
#SCROLL 0.94
,
#SCROLL 0.69
,
#SCROLL 0.87
,
#SCROLL 0.76
,
#SCROLL 0.81
,
#SCROLL 0.87
,
#SCROLL 0.77
,
#SCROLL 0.97
,
#SCROLL 0.71
,
#SCROLL 1.07
,
#SCROLL 0.66
,
#SCROLL 1.16
#MEASURE 2/4
000
#SCROLL 2
5,
#MEASURE 4/4
,
,
0008,
#SCROLL 5
#BARLINEOFF
00007008,
#BARLINEON
#SCROLL 1
11221000,
12211000,
12111000,
100200200100200020001000,
10211001,
11101110,
10211001,
100100100000200020001000,
12211001,
11101110,
12211001,
100100100000200020001000,
00000000
#SCROLL 1.5
580000
#SCROLL 1.75
58,
#SCROLL 2
0000508000
#SCROLL 2.75
508000,
#SCROLL 3.5
580000
#SCROLL 5.5
680000
#SCROLL 8
6800,
#SCROLL 1.5
4444,
#BPMCHANGE 6.75
#SCROLL 1.32
#BARLINEOFF
#MEASURE 1/128
3,
#MEASURE 3/4
#BPMCHANGE 216
#SCROLL 1
000012000000,
#MEASURE 4/4
#BARLINEON
3000000012000000,
3000000012000000,
3,
#GOGOSTART
1111,
#SCROLL 1.25
11111111,
#SCROLL 1.5
50081212,
#GOGOEND
#SCROLL 9999
,
#SCROLL 1.5
7,
,
,
0008,
#SCROLL 1
#GOGOSTART
#MEASURE 2/4
11,
#SCROLL 1.25
2222,
#SCROLL 1.5
1111,
#SCROLL 2.5
7000000000000008,
#GOGOEND
#SCROLL 9999
#MEASURE 4/4
,
#SCROLL 1
000221,
#GOGOSTART
10211001,
12211220,
10201022,
100200200000200020001000,
10211001,
12211220,
12211220,
100200200000200020001000,
2020000000020200,
02202020,
#SCROLL 2
500000000008
#SCROLL 3
500000000008
#SCROLL 4
600000000008
#SCROLL 5
600000000008,
#BARLINEOFF
#SCROLL 6
600800
#SCROLL 1
#GOGOEND
202010,
#BARLINEON
#GOGOSTART
10001212,
10001212,
10001212,
#MEASURE 2/4
000
#GOGOEND
#SCROLL 10
5,
#BPMCHANGE 62.52
#MEASURE 4/4
#BARLINEOFF
#SCROLL 1
80000000000000000000000000005800,
#END

COURSE:Easy
LEVEL:5
BALLOON:2,2,2,460,3
SCOREINIT:410
SCOREDIFF:103
#START
#MEASURE 1/32
#SCROLL 10
,
#SCROLL 9.9
,
#SCROLL 9.8
,
#SCROLL 9.7
,
#SCROLL 9.6
,
#SCROLL 9.5
,
#SCROLL 9.4
,
#SCROLL 9.3
,
#SCROLL 9.2
,
#SCROLL 9.1
,
#SCROLL 9
,
#SCROLL 8.9
,
#SCROLL 8.8
,
#SCROLL 8.7
,
#SCROLL 8.6
,
#SCROLL 8.5
,
#SCROLL 8.4
,
#SCROLL 8.3
,
#SCROLL 8.2
,
#SCROLL 8.1
,
#SCROLL 8
,
#SCROLL 7.9
,
#SCROLL 7.8
,
#SCROLL 7.7
,
#SCROLL 7.6
,
#SCROLL 7.5
,
#SCROLL 7.4
,
#SCROLL 7.3
,
#SCROLL 7.2
,
#SCROLL 7.1
,
#SCROLL 7
,
#SCROLL 6.9
,
#SCROLL 6.8
,
#SCROLL 6.7
,
#SCROLL 6.6
,
#SCROLL 6.5
,
#SCROLL 6.4
,
#SCROLL 6.3
,
#SCROLL 6.2
,
#SCROLL 6.1
,
#SCROLL 6
,
#SCROLL 5.9
,
#SCROLL 5.8
,
#SCROLL 5.7
,
#SCROLL 5.6
,
#SCROLL 5.5
,
#SCROLL 5.4
,
#SCROLL 5.3
,
#MEASURE 1/16
#SCROLL 5.2
,
#SCROLL 5.1
,
#SCROLL 5
,
#SCROLL 4.9
,
#SCROLL 4.8
,
#SCROLL 4.7
,
#SCROLL 4.6
,
#SCROLL 4.5
,
#SCROLL 4.4
,
#SCROLL 4.3
,
#SCROLL 4.2
,
#SCROLL 4.1
,
#SCROLL 4
,
#SCROLL 3.9
,
#SCROLL 3.8
,
#SCROLL 3.7
,
#SCROLL 3.6
,
#SCROLL 3.5
,
#SCROLL 3.4
,
#SCROLL 3.3
,
#SCROLL 3.2
,
#SCROLL 3.1
,
#SCROLL 3
,
#SCROLL 2.65
,
#SCROLL 2.34
,
#SCROLL 2.07
,
#SCROLL 1.82
,
#SCROLL 1.61
,
#SCROLL 1.42
,
#SCROLL 1.26
,
#SCROLL 1.11
,
#SCROLL 1
,
#MEASURE 2/4
#SCROLL 0.98
,
#MEASURE 1/16
#SCROLL 0.7
,
,
,
#SCROLL 0.68
,
,
,
#SCROLL 0.66
,
,
#MEASURE 1/4
#SCROLL 0.64
,
#MEASURE 1/16
#SCROLL 0.5
,
,
#MEASURE 3/8
,
#MEASURE 1/32
#SCROLL 1.11
,
,
,
,
#MEASURE 5/8
,
#MEASURE 4/4
#BARLINEOFF
,
,
#SCROLL 1
#BARLINEON
101100,
101100,
101100,
101220,
101100,
101100,
101100,
101220,
20222000,
22202000,
20222000,
20202200,
20222000,
22202000,
20222020,
#BARLINEOFF
,
#BARLINEON
101100,
101100,
101100,
101220,
101100,
101100,
101100,
#BARLINEOFF
,
#BARLINEON
1110,
1110,
1111,
100100100000200020000000,
#SCROLL 1.105
1111,
#SCROLL 1.21
2222,
#SCROLL 1.295
11102220,
#BARLINEOFF
,
#BARLINEON
#SCROLL 1
1210,
21201020,
1210,
21201210,
2120,
12102010,
2120,
100200100000200020000000,
#SCROLL 1
#MEASURE 1/4
3,
,
#SCROLL 0.6
,
#SCROLL 0.93
,
#SCROLL 0.67
,
#SCROLL 0.88
,
#SCROLL 0.78
,
#SCROLL 0.83
,
#SCROLL 0.87
,
#SCROLL 0.78
,
#SCROLL 0.99
,
#SCROLL 0.74
,
#SCROLL 1.08
,
#SCROLL 0.68
,
#SCROLL 1.18
,
#SCROLL 0.62
,
#MEASURE 4/4
#SCROLL 4
5000000000000008
#SCROLL 8
7000000000008000,
#SCROLL 4
5000000000000008
#SCROLL 8
7000000000008000,
#SCROLL 4
5000000000000008
#SCROLL 8
7000000000008000,
#BARLINEOFF
,
#BARLINEON
#SCROLL 1
#MEASURE 1/4
,
#SCROLL 0.97
,
#SCROLL 0.57
,
#SCROLL 0.94
,
#SCROLL 0.69
,
#SCROLL 0.87
,
#SCROLL 0.76
,
#SCROLL 0.81
,
#SCROLL 0.87
,
#SCROLL 0.77
,
#SCROLL 0.97
,
#SCROLL 0.71
,
#SCROLL 1.07
,
#SCROLL 0.66
,
#SCROLL 1.16
#MEASURE 2/4
000
#SCROLL 2
5,
#MEASURE 4/4
,
,
0008,
#BARLINEOFF
,
#BARLINEON
#SCROLL 1
11220000,
12210000,
12110000,
100100100000200020000000,
12211000,
12112000,
12211000,
100100100000200020000000,
12211020,
12112020,
12211020,
100100100000200020000000,
00000000
#SCROLL 1.5
580000
#SCROLL 1.75
58,
#SCROLL 1
0000
#SCROLL 2
508000
#SCROLL 2.75
508000,
#SCROLL 3.5
580000
#SCROLL 5.5
680000
#SCROLL 8
6800,
#SCROLL 1.5
2222,
#BPMCHANGE 6.75
#SCROLL 1.32
#BARLINEOFF
#MEASURE 1/128
3,
#MEASURE 3/4
#BPMCHANGE 216
#SCROLL 1
010,
#MEASURE 4/4
#BARLINEON
31,
31,
3,
#GOGOSTART
1110,
#SCROLL 1.1
11101110,
#SCROLL 1.2
11111010,
#GOGOEND
#SCROLL 9999
,
#SCROLL 1.5
7,
,
,
0008,
#SCROLL 1
#GOGOSTART
#MEASURE 2/4
11,
#SCROLL 1.1
2220,
#SCROLL 1.2
1111,
#SCROLL 1.5
7000000000000008,
#GOGOEND
#SCROLL 9999
#MEASURE 4/4
,
#SCROLL 1
000220,
#GOGOSTART
10211001,
11001100,
12,
100220,
10211001,
11001100,
10211001,
100100000000200020000000,
5000800000050080,
#SCROLL 1.5
05805858,
#SCROLL 2
500000000008
#SCROLL 3
500000000008
#SCROLL 4
600000000008
#SCROLL 5
600000000008,
#BARLINEOFF
#SCROLL 6
600800
#SCROLL 1
#GOGOEND
202000,
#BARLINEON
#GOGOSTART
10001212,
00001212,
00001212,
#MEASURE 2/4
000
#GOGOEND
#SCROLL 10
5,
#BPMCHANGE 62.52
#MEASURE 4/4
#BARLINEOFF
#SCROLL 1
80000000000000000000000000005800,
#END
