//TJADB Project
TITLE:Zoku Shimedore 2000
TITLEJA:続・〆ドレー2000
SUBTITLE:--Linda AI-CUE
BPM:220
WAVE:Zoku Shimedore 2000.ogg
OFFSET:-3.416
DEMOSTART:3.403

COURSE:Oni
LEVEL:10
SCOREINIT:410
SCOREDIFF:95
#START
#MEASURE 8/4
#SCROLL 0.5
10002000101020001011201000102020,
10002000101020001011202010112020,
10002000101020001011201000102020,
10002000101020001011202010112121,
#MEASURE 4/4
#SCROLL 1
1020112010112010,
2010112020101121,
1020112010112010,
2010112020101121,
1010201120201111,
1010201120201111,
5000000080002111,
200000200000200010001000200000200000100100100000,
#MEASURE 5/4
#BPMCHANGE 240
1,
,
11111110111101101111,
11011011111020000000,
#MEASURE 3/4
330440,
330440,
330440,
#MEASURE 2/4
11211000,
#MEASURE 3/4
330440,
330440,
330440,
122212104000,
112212,
112212,
112212,
#MEASURE 2/4
11211000,
#MEASURE 3/4
101120201220,
101120201220,
101120201220,
122212122120,
#MEASURE 8/4
#BPMCHANGE 280
#SCROLL 0.5
10010010,
10112110,
10000003,
#MEASURE 10/4
000000000000300000000000000000000000300000000000000000000000300000000000000000000000000000000000
#SCROLL 7.65
500000000008000000000000,
#MEASURE 8/4
#SCROLL 0.5
20201111020111102011102011020110,
20201102011020111020111022011110,
20201111020111102011102011020110,
20201102011020111020111022011110,
#GOGOSTART
#BPMCHANGE 270
#MEASURE 1/4
,
#GOGOEND
#BARLINEON
#MEASURE 9/4
200000000000
#SCROLL 1
100000000100100000100000100000100000100000000000100000000000100000000000100000100000100000101010,
#BARLINEOFF
100111100111111111100000100000100000100100100000100000,
#BARLINEON
#SCROLL 0.5
200
#SCROLL 1
100100100100000100000100000100100100111100111100111,
#BARLINEOFF
101010101010100000000000100000000100100000100000100000100000100000000000100000000100100000100000100000100000,
#BARLINEON
#SCROLL 0.5
200
#SCROLL 1
000100000100000100100100111100111100111111111100002,
#BARLINEOFF
000010000200001000020000100002000010000200001000
#BPMCHANGE 239.74
000000,
#BARLINEON
#MEASURE 17/16
#BPMCHANGE 225.27
1,
#MEASURE 19/16
#BPMCHANGE 222.88
00000000000000000
#BPMCHANGE 237.61
00,
#MEASURE 4/4
10002002,
#MEASURE 15/16
100020001010200,
#MEASURE 4/4
#BPMCHANGE 238.81
1212,
#MEASURE 15/16
100020001000200,
#MEASURE 2/4
#BPMCHANGE 250.92
,
#MEASURE 4/4
#BPMCHANGE 463.32
111111,
111111,
111111,
111111,
#BPMCHANGE 200
1021102011201021,
1020112010211020,
1010211020202110,
1021102011202020,
1022102012201022,
1020122010221020,
1010211020202110,
1021102211212000,
#BPMCHANGE 280
111222,
100000001000000010000000100100100100100100100100,
1000102010021010,
1020102210101012,
1002021010201010,
1022102010121010,
1020102010021010,
1020102210101012,
1002021010201010,
1202102011112111,
1000102010021010,
1020102210101012,
1002021010201010,
1022102010121010,
1020102010021010,
1020102210101012,
1002021010201010,
,
#BPMCHANGE 200
1010201020201220,
2010201110102010,
2010201010002000,
1000201011211020,
1020102020001000,
2021101020102110,
1000201010002000,
#SCROLL 0.93
#BPMCHANGE 216
100
#SCROLL 2
221,
#GOGOSTART
#SCROLL 1
100000000200200010200200100000200000200200200200,
100000200000200010200200100000200000200000200000,
100000201000100000200200,
100200201000
#SCROLL 2
200020001000,
#SCROLL 1
100000000200200010200200100000200000200200200200,
100000200000200010200200100000200000200000200000,
100000200000200010200200100000200000200000200000,
100200201000
#SCROLL 2
200020001000,
#SCROLL 1
2222101010122220,
100000200200200200100000100202020200100202020200,
#SCROLL 2
500000000008
#SCROLL 3
500000000008
#SCROLL 4
600000000008
#SCROLL 5
600000000008,
#BARLINEOFF
#SCROLL 6
600800
#GOGOEND
#SCROLL 2
202010,
#GOGOSTART
#BARLINEON
#SCROLL 1
101010001010201210201210,
101010001010201210201210,
10002222,
#MEASURE 2/4
000000
#GOGOEND
#SCROLL 10
500008,
#BARLINEOFF
#MEASURE 4/4
#BPMCHANGE 62.52
#SCROLL 1
00000001,
#END

COURSE:Hard
LEVEL:8
BALLOON:16,4,4,765
SCOREINIT:450
SCOREDIFF:120
#START
#SCROLL 0.5
#MEASURE 8/4
1020112010210120,
1020112010220220,
1020112010210120,
1020112010220220,
#SCROLL 1
#MEASURE 4/4
10101212,
10102121,
20201212,
10102121,
20201120,
11210120,
50000000000000000000000000000000080000000000,
4,
#BPMCHANGE 240
#MEASURE 5/4
#SCROLL 4
9,
#SCROLL 3
,
#SCROLL 2
90800,
#SCROLL 1
,
#MEASURE 3/4
#SCROLL 1
110110,
110110,
110110,
#MEASURE 2/4
500000000008000000000000,
#MEASURE 3/4
330110,
330110,
330110,
708,
330220,
330220,
330220,
#MEASURE 2/4
500000000008000000000000,
#MEASURE 3/4
330440,
330440,
330440,
708,
#BPMCHANGE 280
#SCROLL 0.5
#MEASURE 8/4
10010010,
10111110,
10000003,
#MEASURE 10/4
000000000000300000000000000000000000300000000000000000000000300000000000000000000000000000000000
#SCROLL 7.65
500000000008000000000000,
#MEASURE 8/4
#SCROLL 0.5
2210221011011010,
2210221011010110,
2210221011011010,
2210221011010110,
#GOGOSTART
#BPMCHANGE 270
#MEASURE 1/4
#BARLINEOFF
,
#GOGOEND
#BARLINEON
#MEASURE 9/4
20
#SCROLL 1
1011111010101111,
#BARLINEOFF
111111101010111010,
#BARLINEON
#SCROLL 0.5
2
#SCROLL 1
11110101011111111,
#BARLINEOFF
111010111110101111,
#BARLINEON
#SCROLL 0.5
200000
#SCROLL 1
100000100000100100100100100100100100100100100002,
#BARLINEOFF
000010000200001000020000100002000010000200001000
#BPMCHANGE 239.74
000000,
#BARLINEON
#BPMCHANGE 225.27
#MEASURE 17/16
1,
#MEASURE 19/16
#BPMCHANGE 222.88
0000000000000000
#BPMCHANGE 237.61
000,
#MEASURE 4/4
10002002,
#MEASURE 15/16
100020001010200,
#BPMCHANGE 238.81
#MEASURE 4/4
1212,
#MEASURE 15/16
100020001000200,
#MEASURE 2/4
#BPMCHANGE 250.92
,
#MEASURE 4/4
#BPMCHANGE 463.32
7,
,
,
08,
#BPMCHANGE 200
1011101011101010,
12121011,
11011221,
12121000,
2022202022202020,
21212022,
22022112,
21212000,
#BPMCHANGE 280
111222,
100010001000100100100100,
10121011,
1000100011101010,
10011011,
1000102011101010,
10121011,
1000100011101010,
10011011,
1011102010001010,
10121011,
1000100011101010,
1000001010001110,
1000102011101010,
10121011,
10101111,
1000001010001110,
,
#BPMCHANGE 200
10122010,
20212121,
10211020,
10211212,
10122010,
20212121,
10211020,
#SCROLL 0.93
#BPMCHANGE 216
100
#SCROLL 1.5
221,
#SCROLL 1
#GOGOSTART
1020202210200020,
1020202210202020,
10201022,
100200200000
#SCROLL 1.5
200020001000,
#SCROLL 1
1020202210200020,
1020202210202020,
1020202210200020,
100200200000
#SCROLL 1.5
200020001000,
#SCROLL 1
2222000000022220,
0022220002220222,
#SCROLL 2
500000000008
#SCROLL 3
500000000008
#SCROLL 4
600000000008
#SCROLL 5
600000000008,
#SCROLL 6
#BARLINEOFF
600800
#SCROLL 2
#GOGOEND
202010,
#BARLINEON
#SCROLL 1
#GOGOSTART
101010001010100200100200,
101010001010100200100200,
10001212,
#MEASURE 2/4
000000
#GOGOEND
#SCROLL 10
500008,
#BARLINEOFF
#SCROLL 1
#BPMCHANGE 62.52
#MEASURE 4/4
00000001,
#END

COURSE:Normal
LEVEL:7
BALLOON:10,3,3,543
SCOREINIT:470
SCOREDIFF:120
#START
#SCROLL 0.5
#MEASURE 8/4
10111020,
10222010,
11101110,
3330,
#SCROLL 1
#MEASURE 4/4
1011,
12,
1022,
21,
1110,
1110,
5000000000000000000000000000000000000000000000080000000000000000,
3,
#BPMCHANGE 240
#MEASURE 5/4
#SCROLL 4
9,
#SCROLL 3
,
#SCROLL 2
90800,
#SCROLL 1
,
#MEASURE 3/4
#SCROLL 1
310100,
310100,
310100,
#MEASURE 2/4
500000000008000000000000,
#MEASURE 3/4
330100,
330100,
330100,
708,
330200,
330200,
330200,
#MEASURE 2/4
500000000008000000000000,
#MEASURE 3/4
330400,
330400,
330400,
708,
#BPMCHANGE 280
#SCROLL 0.5
#MEASURE 8/4
10010010,
10111110,
10000003,
#MEASURE 10/4
000000000000300000000000000000000000300000000000000000000000300000000000000000000000000000000000
#SCROLL 7.65
500000000008000000000000,
#MEASURE 8/4
#SCROLL 0.5
1010100011011010,
1010100011010110,
1010100011011010,
1010100011010110,
#GOGOSTART
#BPMCHANGE 270
#MEASURE 1/4
#BARLINEOFF
,
#GOGOEND
#BARLINEON
#MEASURE 9/4
20
#SCROLL 1
1011111010101110,
#BARLINEOFF
111011101010111010,
#BARLINEON
#SCROLL 0.5
2
#SCROLL 1
11110101011101110,
#BARLINEOFF
111010111110101111,
#BARLINEON
#SCROLL 0.5
200000
#SCROLL 1
100000100000100100100000100100100000100100100002,
#BARLINEOFF
000010000200001000020000100002000010000200001000
#BPMCHANGE 239.74
000000,
#BARLINEON
#BPMCHANGE 225.27
#MEASURE 17/16
1,
#MEASURE 19/16
#BPMCHANGE 222.88
0000000000000000
#BPMCHANGE 237.61
000,
#MEASURE 4/4
10002002,
#MEASURE 15/16
100020001010200,
#BPMCHANGE 238.81
#MEASURE 4/4
1212,
#MEASURE 15/16
100020001000200,
#MEASURE 2/4
#BPMCHANGE 250.92
,
#MEASURE 4/4
#BPMCHANGE 463.32
7,
,
,
08,
#BPMCHANGE 200
10111011,
1110,
11011010,
11101000,
20222022,
2220,
22022020,
22202000,
#BPMCHANGE 280
111111,
100010001000100100100100,
10101011,
10101111,
10011011,
10101111,
10101011,
10101111,
10011011,
12121011,
10101011,
10101111,
10011011,
10101111,
10101011,
10101111,
10011011,
,
#BPMCHANGE 200
11111010,
10111011,
10111010,
10001111,
1121,
20001111,
1212,
#SCROLL 0.93
#BPMCHANGE 216
100
#SCROLL 1
221,
#GOGOSTART
10211001,
12211220,
10201022,
100200200000200020001000,
10211001,
12211220,
12211220,
100200200000200020001000,
2020000000020200,
02202020,
#SCROLL 2
500000000008
#SCROLL 3
500000000008
#SCROLL 4
600000000008
#SCROLL 5
600000000008,
#BARLINEOFF
#SCROLL 6
600800
#SCROLL 1
#GOGOEND
202010,
#BARLINEON
#GOGOSTART
10001212,
10001212,
10001212,
#MEASURE 2/4
000000
#GOGOEND
#SCROLL 10
500008,
#BPMCHANGE 62.52
#MEASURE 4/4
#BARLINEOFF
#SCROLL 1
00000000000000000000000000005800,
#END

COURSE:Easy
LEVEL:5
BALLOON:10,3,3,321
SCOREINIT:410
SCOREDIFF:95
#START
#SCROLL 0.5
#MEASURE 8/4
1110,
2220,
11101000,
3330,
#SCROLL 1
#MEASURE 4/4
11,
1,
22,
2,
1110,
1,
5000000000000000000000000000000000000000000000080000000000000000,
3,
#BPMCHANGE 240
#MEASURE 5/4
#SCROLL 4
9,
#SCROLL 3
,
#SCROLL 2
90800,
#SCROLL 1
,
#MEASURE 3/4
#SCROLL 1
3,
3,
3,
#MEASURE 2/4
500000000008000000000000,
#MEASURE 3/4
3,
3,
3,
708,
3,
3,
3,
#MEASURE 2/4
500000000008000000000000,
#MEASURE 3/4
3,
3,
3,
708,
#BPMCHANGE 280
#SCROLL 0.5
#MEASURE 8/4
10010010,
10111110,
10000003,
#MEASURE 10/4
000000000000300000000000000000000000300000000000000000000000300000000000000000000000000000000000
#SCROLL 7.65
500000000008000000000000,
#MEASURE 8/4
#SCROLL 0.5
1010100010010010,
11101110,
1010100010010010,
11101110,
#GOGOSTART
#BPMCHANGE 270
#MEASURE 1/4
#BARLINEOFF
,
#GOGOEND
#BARLINEON
#MEASURE 9/4
20
#SCROLL 1
1010111010101010,
#BARLINEOFF
101011101010101010,
#BARLINEON
#SCROLL 0.5
20
#SCROLL 1
1010101011101010,
#BARLINEOFF
101010101110101010,
#BARLINEON
#SCROLL 0.5
20
#SCROLL 1
1010111010101010,
#BARLINEOFF
000010000000001000000000100000000010000000001000
#BPMCHANGE 239.74
000000,
#BARLINEON
#BPMCHANGE 225.27
#MEASURE 17/16
1,
#MEASURE 19/16
#BPMCHANGE 222.88
0000000000000000
#BPMCHANGE 237.61
000,
#MEASURE 4/4
10002002,
#MEASURE 15/16
100020001010200,
#BPMCHANGE 238.81
#MEASURE 4/4
1212,
#MEASURE 15/16
100020001000200,
#MEASURE 2/4
#BPMCHANGE 250.92
,
#MEASURE 4/4
#BPMCHANGE 463.32
7,
,
,
08,
#BPMCHANGE 200
11,
1110,
11,
1110,
22,
2220,
22,
2220,
#BPMCHANGE 280
11,
1011,
1111,
1120,
1111,
1210,
1111,
1120,
1111,
1210,
10101011,
1110,
10011010,
1110,
10101011,
1110,
10011010,
,
#BPMCHANGE 200
1121,
2022,
1212,
1022,
1121,
2022,
1212,
#SCROLL 0.93
#BPMCHANGE 216
100
#SCROLL 1
220,
#GOGOSTART
10211001,
11001100,
12,
100220,
10211001,
11001100,
10211001,
100100000000200020000000,
5000800000050080,
#SCROLL 1.5
05805858,
#SCROLL 2
500000000008
#SCROLL 3
500000000008
#SCROLL 4
600000000008
#SCROLL 5
600000000008,
#BARLINEOFF
#SCROLL 6
600800
#SCROLL 1
#GOGOEND
202000,
#BARLINEON
#GOGOSTART
10001212,
00001212,
00001212,
#MEASURE 2/4
000000
#GOGOEND
#SCROLL 10
500008,
#BPMCHANGE 62.52
#MEASURE 4/4
#BARLINEOFF
#SCROLL 1
00000000000000000000000000005800,
#END
