//TJADB Project
TITLE:Kare Kano Canon
TITLEJA:カレ・カノ・カノン
SUBTITLE:--Keiichi Okabe feat. Mamechiyo Nakamura
BPM:180
WAVE:Kare Kano Canon.ogg
OFFSET:-1.536
DEMOSTART:52.188

COURSE:Oni
LEVEL:8
SCOREINIT:390
SCOREDIFF:100
#START
,
,
,
11,
11,
11,
1000100010001111,
12212112,
12121211,
12112112,
12121222,
3434,
10210340,
1000102210202000,
1000102210202000,
1000102210202000,
12201220,
1000102210202000,
1000102210202000,
1000102210202000,
12201220,
1000102011202010,
1000102011202010,
1000102011202010,
1220200012202000,
1000102011202010,
1000102011202010,
1000102011202010,
1220200012202000,
1000122010001220,
500000000000000000000000000000000008000000000000,
1000122010001220,
1022202020222020,
1000122010001220,
500000000000000000000000000000000008000000000000,
1000122010001220,
1022202020111010,
0000000022002222,
#GOGOSTART
1020201120201020,
1020201120201020,
1122101010002020,
1122201010102220,
1020201120201020,
1020201120201020,
1122101010002220,
3333,
500000000000000000000000000000000000000000000008,
#GOGOEND
,
1020101220101020,
1020102210202020,
1020201220101020,
1020102210201010,
1020101220101020,
10000333,
1000202011102020,
1010202011102220,
1000202011102020,
1110200011102000,
1000202011102020,
1010202011102220,
1000202011102020,
1111200011112000,
1020122010201220,
500000000000000000000000000000000008000000000000,
1020122010201220,
1022202020222020,
1020122010201220,
500000000000000000000000000000000008000000000000,
1020122010201220,
1022202020111010,
0000000022002222,
1,
#SCROLL 0.7
33,
300033,
33,
3202,
3220,
3232,
#SCROLL 0.8
1111,
#SCROLL 0.9
11111111,
#SCROLL 1
1110111011101110,
#GOGOSTART
1020201120201020,
1020201120201020,
1011221010202000,
1011221011102220,
1020201120201020,
1020201120201020,
1011221010002220,
3333,
1010201220122010,
1010201220122010,
1022122010221020,
1022122010221020,
1010201220122010,
1010201220122010,
1022122010221020,
1220122012201220,
,
32323232,
33033033,
#GOGOEND
#END

COURSE:Hard
LEVEL:5
SCOREINIT:450
SCOREDIFF:118
#START
,
,
,
1012,
10001220,
1012,
10101220,
10101212,
10101212,
10101212,
10101212,
1212,
10210340,
#SECTION
#BRANCHSTART p,75,90
#N
1212,
1212,
1212,
1210,
1212,
1212,
1212,
1210,
#E
1212,
1212,
1212,
1210,
1212,
1212,
1212,
1210,
#M
1212,
1212,
1212,
1210,
1212,
1212,
1212,
1210,
#SECTION
#BRANCHSTART p,75,90
#N
10221020,
10221020,
10221020,
10221000,
10221020,
10221020,
10221022,
10222000,
#E
10221020,
10221020,
10221020,
10221000,
10221020,
10221020,
10221022,
10222000,
#M
10221020,
10221020,
10221020,
10221000,
10221020,
10221020,
10221022,
10222000,
#SECTION
#BRANCHSTART p,75,90
#N
10111010,
500000000000000000000000000000000008000000000000,
#E
1000111010001000,
500000000000000000000000000000000008000000000000,
#M
1000111010001110,
500000000000000000000000000000000008000000000000,
#SECTION
#BRANCHSTART p,75,90
#N
10111010,
500000000000000000000000000000000008000000000000,
#E
1000111010001000,
500000000000000000000000000000000008000000000000,
#M
1000111010001110,
500000000000000000000000000000000008000000000000,
#SECTION
#BRANCHSTART p,75,90
#N
20222020,
500000000000000000000000000000000008000000000000,
20222020,
11101111,
,
#E
2000222020002000,
500000000000000000000000000000000008000000000000,
2000222020002000,
11101111,
,
#M
2000222020002220,
500000000000000000000000000000000008000000000000,
2000222020002220,
12221222,
,
#GOGOSTART
#SECTION
#BRANCHSTART p,75,90
#N
10211020,
10211020,
1110,
1110,
10211020,
10211020,
11101020,
3333,
500000000000000000000000000000000000000000000008,
#GOGOEND
,
10101210,
10101210,
10101210,
10101210,
10101210,
10000333,
#E
10211021,
10211021,
1110,
1110,
10211021,
10211021,
10211022,
3333,
500000000000000000000000000000000000000000000008,
#GOGOEND
,
10101212,
10101212,
10101212,
10101212,
10101212,
10000333,
#M
10211121,
10211121,
10211020,
10211020,
10211121,
10211121,
10211020,
3333,
500000000000000000000000000000000000000000000008,
#GOGOEND
,
10101212,
10101212,
10101212,
10101212,
10101222,
10000333,
#SECTION
#BRANCHSTART p,75,90
#N
10221020,
10221020,
10221020,
10221000,
22101010,
22101010,
22101010,
22101000,
#E
10221020,
10221020,
10221020,
10221000,
22101010,
22101010,
22101010,
22101000,
#M
10221020,
10221020,
10221020,
10221000,
22121010,
22121010,
22121010,
22121000,
#SECTION
#BRANCHSTART p,75,90
#N
10111010,
500000000000000000000000000000000008000000000000,
#E
1000111010001000,
500000000000000000000000000000000008000000000000,
#M
1000111010001110,
500000000000000000000000000000000008000000000000,
#SECTION
#BRANCHSTART p,75,90
#N
10111010,
500000000000000000000000000000000008000000000000,
#E
1000111010001000,
500000000000000000000000000000000008000000000000,
#M
1000111010001110,
500000000000000000000000000000000008000000000000,
#SECTION
#BRANCHSTART p,75,90
#N
20222020,
500000000000000000000000000000000008000000000000,
20222020,
11101111,
,
#E
2000222020002000,
500000000000000000000000000000000008000000000000,
2000222020002000,
11111111,
,
#M
2000222020002220,
500000000000000000000000000000000008000000000000,
2000222020002220,
12221222,
,
#SECTION
#BRANCHSTART p,75,90
#N
3,
33,
300033,
33,
3,
3,
33,
3333,
11101110,
500000000000000000000000000000000008000000000000,
#E
3,
33,
300033,
33,
3202,
3202,
3232,
3333,
11101110,
500000000000000000000000000000000008000000000000,
#M
3,
33,
300033,
33,
3202,
3202,
3232,
3333,
11111111,
500000000000000000000000000000000008000000000000,
#GOGOSTART
#SECTION
#BRANCHSTART p,75,90
#N
10211020,
10211020,
1112,
1112,
10211020,
10211020,
1112,
3333,
#E
10211021,
10211021,
1112,
11111020,
10211021,
10211020,
10101022,
3333,
#M
1000201110102000,
1000201110102000,
11111020,
11111020,
1000201110102000,
1000201110102000,
11111020,
3333,
#SECTION
#BRANCHSTART p,75,90
#N
22201110,
22201110,
22220110,
22220110,
22201110,
22201110,
22220110,
3333,
,
3333,
33033033,
#E
22221110,
22221110,
2022200010101000,
2022200010101000,
22221110,
22221110,
2022200010101000,
3333,
,
3333,
33033033,
#M
1022202010101000,
1022202010101000,
2022202010101000,
2022202010101000,
1022202010101000,
1022202010101000,
2022202010101000,
3333,
,
3333,
33033033,
#BRANCHEND
#GOGOEND
#END

COURSE:Normal
LEVEL:4
SCOREINIT:610
SCOREDIFF:140
#START
,
,
,
11,
11,
11,
11,
1110,
1110,
1110,
1110,
11,
30330000,
1212,
1212,
1212,
11,
1212,
1212,
1212,
11,
2121,
2121,
2121,
22,
2121,
2121,
2121,
2220,
1111,
500000000000000000000000000008000000000000000000,
1111,
500000000000000000000000000008000000000000000000,
2222,
500000000000000000000000000008000000000000000000,
2222,
1111,
,
#GOGOSTART
1111,
10001110,
11,
11,
1111,
10001110,
11,
33,
500000000000000000000000000000000000000000000008,
#GOGOEND
,
1110,
1110,
1110,
1110,
1110,
1,
1212,
1212,
1212,
11,
2121,
2121,
2121,
22,
1111,
500000000000000000000000000008000000000000000000,
1111,
500000000000000000000000000008000000000000000000,
2222,
500000000000000000000000000008000000000000000000,
2222,
1111,
,
3,
33,
3,
33,
3,
3,
33,
6,
000000000000000000000000000000000000000000000008,
,
#GOGOSTART
1111,
10001110,
22,
22,
1111,
10001110,
22,
2222,
1111,
10001110,
11,
11,
1111,
10001110,
11,
1111,
,
3333,
600000000000000000000000000000000000000000000008,
#GOGOEND
#END

COURSE:Easy
LEVEL:3
SCOREINIT:400
SCOREDIFF:110
#START
,
,
,
1,
1,
1,
11,
1110,
1110,
1110,
1110,
11,
3330,
11,
11,
11,
11,
11,
11,
11,
11,
22,
22,
22,
22,
22,
22,
22,
22,
1111,
500000000000000000000000000008000000000000000000,
1111,
500000000000000000000000000008000000000000000000,
2222,
500000000000000000000000000008000000000000000000,
1110,
33,
,
#GOGOSTART
1111,
11,
1110,
1110,
1111,
11,
1110,
1111,
500000000000000000000000000000000000000000000008,
#GOGOEND
,
11,
1110,
11,
1110,
11,
1,
11,
11,
11,
11,
22,
22,
22,
22,
1111,
500000000000000000000000000008000000000000000000,
1111,
500000000000000000000000000008000000000000000000,
2222,
500000000000000000000000000008000000000000000000,
2220,
33,
,
3,
33,
3,
33,
3,
3,
33,
6,
000000000000000000000000000000000000000000000008,
,
#GOGOSTART
1111,
11,
2220,
2220,
1111,
11,
2220,
22,
1111,
1111,
11,
11,
1111,
1111,
11,
1111,
,
3333,
600000000000000000000000000000000000000000000008,
#GOGOEND
#END
