//TJADB Project
TITLE:memoria ficta
TITLEJA:memoria ficta
SUBTITLE:--Versus
SUBTITLEJA:Versus
BPM:125
WAVE:memoria ficta.ogg
OFFSET:-2.105
DEMOSTART:85.375

COURSE:Oni
LEVEL:10
SCOREINIT:470
SCOREDIFF:113
BALLOON:27,8
#START
2000002020222020,
20202022,
20202222,
20000012,
2000202010000012,
20221012,
20022020,
#BPMCHANGE 250
10212211,
00212211,
2002002002002010,
10230304,
0000201120201010,
0011201020201010,
0011201020201000,
0010102030040040,
0010201120201010,
0010201022201110,
2220111022201010,
1120112011201120,
2121212121212121,
,
,
7,
0008,
#GOGOSTART
3000000030040030,
0000000030040040,
0000000040040030,
0022112211221120,
3000000030030040,
0221122112211220,
02121122,
2121212121222000,
0000300030040030,
2220112030040040,
1110221040040030,
01121211,
10201121,
1221122112211220,
30443406,
0080102220201020,
#GOGOEND
10012212,
1022221020201020,
10212101,
0010201001002000,
00102101,
2222102210221022,
10101221,
00102100,
10012212,
1022221020201020,
10212101,
0010201001002000,
00102101,
2222102210221022,
10101225,
000000000008000000000000000000200000200000200000,
10222201,
0022202020202020,
1022202020202010,
02221022,
10221201,
0022201020201020,
1000200010201120,
0020102020100011,
10211221,
0011202010102010,
10211221,
01221122,
1020102210201022,
1020102210201000,
1000201110102010,
10210120,
1000201110102020,
1110201020102000,
1020102210201022,
1020102210201022,
1010112210112210,
30030040,
,
,
#GOGOSTART
30030040,
21221112,
1000112000102000,
500000000000000000000008000000000000100000200000,
10120120,
1120001120002000,
2011221022101050,
000008000000200200100100200200100100200200200200,
1000102010002222,
1020102022112210,
1000112010001020,
1000111010112222,
1000102010102220,
1000102011102220,
1000112010112220,
1170000000802220,
#GOGOEND
30030403,
0000102211101020,
2011222010202210,
0020100011201000,
20000020,
22,
#GOGOSTART
2011102011112010,
0010201011202220,
2011102011222022,
1111221111222222,
#GOGOEND
,
22,
3,
#END

COURSE:Hard
LEVEL:7
BALLOON:18,7,9,8
#START
2000002020222020,
20202022,
20202222,
20000022,
2000202020000022,
20222022,
20022020,
#BPMCHANGE 250
10112011,
00112011,
00112011,
00140404,
00112011,
01112011,
01112011,
0010101040040040,
00112011,
01112011,
01112011,
01112011,
500000000000000000000000000000000000000000000008,
,
,
7,
0008,
#GOGOSTART
3000000030040030,
0000000030040040,
0000000040040030,
000000500000000000000000000000000000000008000000,
3000000030030040,
000500000000000000000000000000000000000008000000,
01111222,
7008,
0000300030040030,
500000000000000008000000300000000400000000400000,
500000000000000008000000400000000400000000300000,
01122022,
10201122,
500000000000000000000000000000000000000008000000,
30444403,
,
#GOGOEND
10001202,
02211221,
10221102,
0010102002002000,
00102100,
500000000000000000000000000000000000000008000000,
10101122,
00102100,
10001202,
02211221,
10221102,
0010102002002000,
00102100,
500000000000000000000000000000000000000008000000,
10101127,
0008,
20000002,
,
20000002,
,
20000002,
,
20002021,
02102100,
10201121,
01201122,
10201121,
01201122,
10211120,
10201120,
10211120,
10210120,
10211120,
11210120,
10211120,
11210120,
500000000000000000000000000000000008000000000000,
30030040,
,
,
#GOGOSTART
30030040,
10221122,
10120120,
500000000000000000000008000000000000100000200000,
10120120,
12012020,
22112215,
000000000000000000000000000000000008000000000000,
10121020,
11222211,
10121020,
10101122,
10121020,
10121020,
10120120,
7008,
#GOGOEND
30030403,
00101122,
11221122,
0211,
2,
22,
#GOGOSTART
10201121,
01201120,
22111122,
02211200,
#GOGOEND
,
22,
3,
,
,
#END

COURSE:Normal
LEVEL:6
BALLOON:12,12,6,12
#START
22,
2220,
2022,
2,
22,
22,
2022,
#BPMCHANGE 250
3,
,
1,
00030303,
01,
01,
01,
0000000030030030,
01,
01,
01,
01,
500000000000000000000000000000000000000000000008,
,
,
7,
0008,
#GOGOSTART
3000000030030030,
0000000030030030,
0000000030030030,
000000500000000000000000000000000008000000000000,
3000000030030030,
000500000000000000000000000000000000000008000000,
07000000,
0008,
0000300030030030,
0000000030030030,
0000000030030030,
,
1011,
500000000000000000000000000000000008000000000000,
30303003,
,
#GOGOEND
10001101,
,
10001101,
,
0110,
500000000000000000000000000000000008000000000000,
10001101,
0110,
10001101,
,
10001101,
,
0110,
500000000000000000000000000000000008000000000000,
10001107,
0008,
20000002,
,
20000002,
,
20000002,
,
20000002,
,
10001101,
02,
10001101,
02,
10110010,
12,
10110000,
10110000,
10110000,
10110000,
10110010,
10110010,
10110010,
30030040,
,
,
#GOGOSTART
30030030,
33,
30030030,
3,
30030030,
03003030,
6,
000000000000000000000000000000000008000000000000,
10010010,
12,
10010010,
12,
10010010,
12,
5,
000000000000000000000000000008000000000000000000,
#GOGOEND
30030303,
0110,
7,
0008,
2,
2,
#GOGOSTART
10001011,
00101100,
10001011,
00101100,
#GOGOEND
,
22,
3,
,
,
#END

COURSE:Easy
LEVEL:4
BALLOON:9,10,4,19,9
#START
22,
2220,
2022,
2,
22,
22,
2022,
#BPMCHANGE 250
3,
,
1,
00000003,
01,
01,
01,
00000003,
01,
01,
01,
01,
500000000000000000000000000000000000000000000008,
,
,
7,
0008,
#GOGOSTART
33,
03,
03,
,
33,
,
07000000,
0008,
0100,
01,
01,
,
11,
1,
6,
00000800,
#GOGOEND
10001001,
,
10001001,
,
0110,
500000000000000000000000000000000008000000000000,
11,
0110,
10001001,
,
10001001,
,
0110,
500000000000000000000000000000000008000000000000,
10001007,
0008,
20000002,
,
20000002,
,
20000002,
,
20000002,
,
10001001,
01,
10001001,
01,
1,
11,
7,
,
,
8,
10010000,
10010000,
10010000,
30030030,
,
,
#GOGOSTART
3,
33,
3,
3,
3,
03003000,
6,
000000000000000000000000000000000008000000000000,
1,
11,
1,
11,
1,
11,
5,
000000000000000000000000000008000000000000000000,
#GOGOEND
30000003,
,
7,
0008,
2,
2,
#GOGOSTART
10001001,
01,
10001001,
02,
#GOGOEND
,
22,
3,
,
,
#END
