//TJADB Project
TITLE:Petshop Taisen
TITLEJA:ペットショップ大戦
SUBTITLE:--chacol feat. Focco
SUBTITLEJA:chacol feat. Focco
BPM:172
WAVE:Petshop Taisen.ogg
OFFSET:-1.591
DEMOSTART:38.386

COURSE:Oni
LEVEL:10
BALLOON:4
SCOREINIT:520
SCOREDIFF:135
#START
3000300030221020,
100000202020100000200000100000000100000000200000,
1020200010221000,
1221121010010010,
000100400000101010202020,
1022120210202120,
1020120110201020,
3000300030002222,
1010201202122020,
2020102101211020,
1010201202122020,
2020102101211020,
100010002000200010001000200100100100100010002000,
211222300300,
1022122210212020,
100000200100000100200200100010002000200010001000,
200100100100100010002000200010001000200010001000,
3000300021102011,
1010222010210210,
1010210112211020,
1020210112211020,
1010210112211020,
1010201210010211,
1011211021112210,
1111221120111110,
1001202011012010,
3011111112020202,//27
#GOGOSTART
1011210101012212,
1011210201012211,
100010001000200020002000100000000100000000200000,
1022122111012111,
1002112001002020,
100020002000100020002000100000200000100100100000,
1110202210210210,
100200200200101010200200100010001000400010001000,//35
#GOGOEND
1010200112211212,
1110202101021020,
101020201020111111221122,
7000803000102100,
0100101202022212,
0200211221121000,
1010201101012211,
500000000000000000000000000000000008000000000000,
1010210112211020,
1020210112211020,
1010210112211020,
1010201210010211,
1011211021112210,
1221212120111210,
1001202011012010,
3011222222020202,//51
#GOGOSTART
1011210101012212,
1011210201012211,
100010001000200020002000100000000100000000200000,
1022122111012111,
1002112212001020,
100020002000100020002000100000200000100100100200,
1110202210210210,
100200200200101010200200100010001000400010001000,//59
#GOGOEND
3000300030221020,
100000202020100000200000100000000200000000200000,
1020200010221000,
1221121010010010,
000100400000101010202020,
1022120201202120,
1020120110201020,
300000300000300111200000,
#END

COURSE:Hard
LEVEL:7
BALLOON:12,7,7,7
SCOREINIT:670
SCOREDIFF:190
#START
3330,
1010100010010010,
12202000,
1010100010010010,
000100400000101010100000,
500000000000000000000000000000000008000000000000,
1020100011101000,
3330,
1000100011101000,
2000200022202000,
1000100011101000,
2000200022202000,
1221,
2233,
30001212,
1001001010002000,
2122,
3330,
1010202010010010,
11201122,
11201122,
11201122,
1000002020020020,
3002002030002000,
3002002030002000,
1000001010010050,
000000000000000000000000000008000000000000000000,//27
#GOGOSTART
1000001011102000,
1000001011102000,
101010101010100000100700,
0008,
1001001001001000,
111111200200,
1020100010010070,
08,//35
#GOGOEND
10201022,
10101120,
500000000000000000000000000000000000000000000008,
0022,
10102120,
1000100020222000,
1000200010102220,
500000000000000000000000000008000000000000000000,
11201122,
11201122,
11201122,
1000002020020020,
3002002030002000,
4001001040001000,
1000001010010050,
000000000000000000000000000008000000000000000000,//51
#GOGOSTART
1000001011102000,
1000001011102000,
101010101010100000100700,
08,
1001001001001000,
111111200200,
1020100010010070,
08,//59
#GOGOEND
3330,
11101000,
2220,
11101000,
000100400000101010100000,
500000000000000000000000000000000008000000000000,
10101212,
3334,
,
,
,
#END

COURSE:Normal
LEVEL:5
BALLOON:12,7,7,7,7,12
#START
3330,
11101000,
2220,
11101000,
7,
0008,
11,
3330,
1011,
1022,
2011,
1022,
1221,
2233,
30001011,
1012,
2122,
3330,
10111000,
1021,
1021,
1021,
12,
3032,
3032,
1000000010010050,
000000000000000000000000000008000000000000000000,//27
#GOGOSTART
10011020,
10011020,
7,
8,
1001001001001000,
2211,
2000200010010070,
08,//35
#GOGOEND
10101011,
1212,
500000000000000000000000000000000000000000000008,
02,
1012,
1012,
1012,
500000000000000000000000000008000000000000000000,
1021,
1021,
1021,
12,
3032,
3032,
1000000010010050,
000000000000000000000000000008000000000000000000,//51
#GOGOSTART
10011020,
10011020,
7,
8,
1001001001001000,
2211,
2000200010010070,
08,//59
#GOGOEND
3330,
11101000,
2220,
11101000,
7,
0008,
11,
3334,
,
,
,
#END

COURSE:Easy
LEVEL:4
BALLOON:7,8,4,8,4,7
#START
33,
1110,
2220,
1110,
7,
0008,
11,
3330,
1011,
1022,
2011,
1022,
1021,
0230,
3011,
11,
2102,
33,
1110,
1001,
1001,
1001,
12,
33,
33,
10001005,
000000000000000000000000000008000000000000000000,//27
#GOGOSTART
1011,
1011,
7,
8,
10010010,
2222,
10001007,
08,//35
#GOGOEND
1011,
11,
500000000000000000000000000000000000000000000008,
,
1,
11,
22,
500000000000000000000000000008000000000000000000,
1001,
1001,
1001,
12,
33,
44,
10001005,
000000000000000000000000000008000000000000000000,//51
#GOGOSTART
1011,
1011,
7,
8,
10010010,
2222,
10101007,
08,//59
#GOGOEND
33,
1110,
2220,
1110,
7,
0008,
11,
3334,
,
,
,
#END
