//TJADB Project
TITLE:TOKIMEKI♡Destroyer‼
TITLEJA:TOKIMEKI♡ですとろいやー!!
SUBTITLE:--Ayatsugu_Otowa
SUBTITLEJA:Ayatsugu_Otowa
BPM:200
WAVE:TOKIMEKI Destroyer!!.ogg
OFFSET:-1.320
DEMOSTART:61.920

COURSE:Oni
LEVEL:9
SCOREINIT:390
SCOREDIFF:95
#START
#BARLINEOFF
#MEASURE 2/4
20222222,
#BARLINEON
#MEASURE 4/4
1000202000200020,
0020202220002000,
1022202000200020,
0020202222202020,
1022102010201010,
1022102010201010,
3022202030222020,
1222122212121212,
#BARLINEOFF
0020002000204000,
#BARLINEON
3000100010111020,
1020100010001010,
1000100010111022,
1010100021112011,
1000100010111020,
1020100010001010,
1000100010111022,
1010001000400000,
3000100010111020,
1020100011102010,
1000100010111022,
1010100021112011,
1000100010111020,
1020100011102011,
1020102210111020,
5000000000000800,
#SCROLL 0.67
#MEASURE 8/4
100000000000000000000000200000000000000000002020
000000000000200000200000000000200000000000200000,
0000002020202020
0000002000200022,
2000000000000000
2000002000000022,
2000000000000000
1000100010004000,
#SCROLL 1.0
#MEASURE 4/4
1000200010002000,
1010202000221000,
1020100020001000,
2020101000221000,
1000200010002000,
1010202000221000,
1020100020001000,
2020101020221040,
1011202000200020,
0020102210112010,
1022201000200020,
0020102211201010,
1022102010201010,
1022102220201010,
3000200030002020,
3020302012121212,
#BARLINEOFF
0020002000204000,
#BARLINEON
#GOGOSTART
3022102220201020,
1022112012101120,
3000300030300030,
0030302210102020,
3022102220101020,
1022112021201120,
3000300030300012,
2210202011202020,
3022102220201020,
1022112012101120,
3000300030300030,
0030302210102020,
3022102220101020,
1022112021201120,
3000302210300011,
2121112110403030,
#GOGOEND
1022202000200020,
0020202220002000,
2022202000200020,
0020202220202020,
1022202000200020,
0020202220112220,
3030004040003030,
2012102030404040,
1011202000200020,
0020102220002010,
1022201000200020,
0020102211201010,
1022102010201010,
1022102220201010,
3022202030222020,
3020302030404040,
#GOGOSTART
3022102220221020,
1022112012101120,
3000300030300030,
0030302210102020,
3022102220121020,
1022112021201120,
3000300030301012,
2210202011202020,
3022102220221020,
1022112112101120,
3000300030300030,
0030301120202120,
3022102220121020,
1022112121201120,
3000302210301011,
2111212111203040,
#GOGOEND
30000000,
#END

COURSE:Hard
LEVEL:7
SCOREINIT:370
SCOREDIFF:100
#START
#BARLINEOFF
#MEASURE 2/4
,
#BARLINEON
#MEASURE 4/4
1,
2022,
1,
2022,
10101011,
10101011,
3232,
30303333,
02020240,
10101101,
11101020,
10101101,
1010100022202000,
10101101,
11101020,
10101101,
500000000000000000000000000008000000000000000000,
10101101,
1010100011102000,
10101101,
1010100022202000,
10101101,
1010100011102000,
10101101,
500000000000000000000000000008000000000000000000,
#SCROLL 0.67
2,
,
2,
,
2,
2,
2,
,
#SCROLL 1
1212,
1010202000222000,
2121,
2020101000222000,
1212,
1010202000222000,
2121,
2020101000222000,
11211012,
12102020,
11211012,
12102020,
11211012,
11211012,
3232,
30303333,
02020240,//51
#GOGOSTART
10101012,
1020202010111000,
30303303,
03334040,
10101012,
1020202010222000,
30303303,
44440444,
10101012,
1020202010111000,
30303303,
03334040,
10101012,
1020202010222000,
30303303,
44040400,//67
#GOGOEND
1,
22,
2,
22,
1,
22,
33044033,
04403333,
10101011,
12111211,
10101011,
12111211,
1000100010111020,
1000100010111020,
3232,
30304444,//83
#GOGOSTART
10221122,
1020202010111000,
30303303,
03334040,
10221122,
1020202010222000,
30303303,
44440444,
10221122,
1020202010111000,
30303303,
03334444,
10221122,
1020202010222000,
30303303,
03334444,//99
#GOGOEND
3,
,
#END

COURSE:Normal
LEVEL:5
BALLOON:10,12
#START
#BARLINEOFF
#MEASURE 2/4
,
#BARLINEON
#MEASURE 4/4
1,
22,
1,
22,
10101011,
10101011,
33,
30303333,
,
1110,
1112,
1110,
10102220,
1110,
1112,
1110,
500000000000000000000000000008000000000000000000,
1110,
1112,
1110,
10102220,
1110,
1112,
1110,
500000000000000000000000000008000000000000000000,
#SCROLL 0.67
2,
,
2,
,
2,
2,
2,
,
#SCROLL 1
1111,
22220000,
1111,
22220000,
3,
3,
33,
3330,
1111,
2222,
11,
2222,
10101011,
10101011,
33,
30303333,
,//51
#GOGOSTART
10101011,
1122,
5,
000000000000000000000000000008000000000000000000,
10101011,
10102220,
5,
000000000000000000000000000008000000000000000000,
10101011,
1122,
6,
000000000000000000000000000008000000000000000000,
10101011,
10102220,
6,
000000000000000000000000000008000000000000000000,//67
#GOGOEND
2,
22,
2,
22,
2,
22,
7,
0008,
10101011,
1212,
10101011,
1212,
10101011,
10101011,
33,
30303333,//83
#GOGOSTART
10101011,
11102020,
5,
000000000000000000000000000008000000000000000000,
10101011,
11102220,
5,
000000000000000000000000000008000000000000000000,
10101011,
11102020,
6,
000000000000000000000000000008000000000000000000,
10101011,
11102220,
7,
,//99
#GOGOEND
8,
,
#END

COURSE:Easy
LEVEL:4
BALLOON:9,10
#START
#BARLINEOFF
#MEASURE 2/4
,
#BARLINEON
#MEASURE 4/4
1,
,
1,
,
11,
11,
33,
3333,
,
1110,
11,
1110,
12,
1110,
11,
1110,
500000000000000000000000000008000000000000000000,
1110,
1,
1110,
12,
1110,
11,
1110,
500000000000000000000000000008000000000000000000,
#SCROLL 0.67
2,
,
2,
,
2,
,
2,
,
#SCROLL 1
11,
2200,
11,
2200,
3,
3,
33,
3330,
11,
2220,
11,
2220,
1110,
1110,
33,
3333,
,//51
#GOGOSTART
1111,
2220,
5,
000000000000000000000000000008000000000000000000,
1111,
2220,
5,
000000000000000000000000000008000000000000000000,
1111,
2220,
6,
000000000000000000000000000008000000000000000000,
1111,
2220,
6,
000000000000000000000000000008000000000000000000,//67
#GOGOEND
2,
,
2,
,
2,
,
7,
0008,
11,
2220,
11,
2220,
1110,
1110,
33,
3330,//83
#GOGOSTART
1111,
2120,
5,
000000000000000000000000000008000000000000000000,
1111,
2120,
5,
000000000000000000000000000008000000000000000000,
1111,
2120,
6,
000000000000000000000000000008000000000000000000,
1111,
2120,
7,
,//99
#GOGOEND
8,
#END
