//TJADB Project
TITLE:Kill Carry On
TITLEJA:キレキャリオン
SUBTITLE:--Police Picadilly feat. Hatsune Miku/#C.O.M.P.A.S.S.
SUBTITLEJA:ポリスピカデリー feat.初音ミク 「戦闘摂理解析システム#コンパス」より
BPM:170
WAVE:Kill Carry On.ogg
OFFSET:-3.019
DEMOSTART:56.658

COURSE:Oni
LEVEL:8
BALLOON:6,4
SCOREINIT:2280
SCOREDIFF:0
#START
22222222,
22222222,
#GOGOSTART
12112121,
12112221,
12112121,
1020101020222222,
12112121,
12112221,
12112121,
33033030,
#GOGOEND
1010201020020020,
1001001020221020,
1010201020020020,
11201120,
1010201020020020,
1001001020221020,
12221212,
1010201120102000,
#GOGOSTART
12112121,
12112221,
12112121,
3030003010112222,
#GOGOEND
1010201000102011,
1010202020102022,
1010201000102011,
1010200010102002,
1010201000102011,
1010202020102022,
1010201000102011,
11210122,
30030030,
1120101020004000,
30030041,
1020400220111111,
10102112,
1000100020102011,
200000100100100000200000101010100000200000300000,
,
#GOGOSTART
1110201020112010,
2011101020102000,
1110201020112010,
2011101020102000,
1110201020002000,
500000000000000000000000000008000000000000000200,
1010202020102011,
500000000000000008000000700000000000000000800000,
10112010,
1000101210102000,
1011101020002000,
1000102020122010,
30230230,
21114000,
#GOGOEND
12112121,
12112221,
12112121,
1020101020222222,
12112121,
12112221,
12112121,
33033070,
8,
#END

COURSE:Hard
LEVEL:4
BALLOON:15,9
SCOREINIT:4030
SCOREDIFF:0
#START
20002222,
20002222,
#GOGOSTART
10101110,
10101120,
10101110,
10102222,
10101110,
10101120,
10101110,
33033030,
#GOGOEND
1011,
12,
10001110,
1212,
1011,
12,
10001110,
1122,
#GOGOSTART
500000000000000000000000000000000000000000000008,
,
10101110,
300000300000000000300000500000000000000008000000,
#GOGOEND
11210120,
11201120,
11210120,
11201120,
11210120,
12201220,
11210120,
12201220,
30030030,
3236,
000000000008000000000000000000200000200000000000,
3346,
000000000008000000000000200000000000100000200000,
1127,
00000008,
,
#GOGOSTART
10111011,
10112120,
10111011,
10112120,
11222020,
500000000000000000000000000008000000000000000000,
11222020,
500000000000000000000000000008000000000000000000,
10112010,
1120,
10112010,
10122010,
6,
000000000000000000000008000000000000000000000000,
#GOGOEND
10101111,
10101122,
10101111,
10102222,
10101111,
10101122,
10101111,
7,
8,
#END

COURSE:Normal
LEVEL:3
BALLOON:6,11,7
SCOREINIT:8130
SCOREDIFF:
#START
2022,
2022,
#GOGOSTART
1110,
1110,
1110,
1120,
1110,
1110,
1110,
7008,
#GOGOEND
1,
12,
1,
22,
1,
12,
1,
22,
#GOGOSTART
500000000000000000000000000000000000000000000008,
,
1110,
3,
#GOGOEND
1012,
11,
1012,
11,
1022,
11,
1022,
11,
3,
3036,
000000000000000008000000000000000000000000000000,
3046,
000000000000000008000000000000000000000000000000,
1117,
00000008,
,
#GOGOSTART
11,
1011,
11,
1011,
1122,
500000000000000000000000000008000000000000000000,
1122,
500000000000000000000000000008000000000000000000,
1120,
1120,
1122,
33,
6,
000000000000000000000008000000000000000000000000,
#GOGOEND
1110,
1110,
1110,
1120,
1110,
1110,
1110,
7,
8,
,
#END

COURSE:Easy
LEVEL:2
BALLOON:9,6
SCOREINIT:14410
SCOREDIFF:
#START
2,
2,
#GOGOSTART
1,
11,
1,
11,
1,
11,
1,
3,
#GOGOEND
1,
1,
1,
2,
1,
1,
1,
2,
#GOGOSTART
500000000000000000000000000000000000000000000008,
,
,
3,
#GOGOEND
1,
1,
1,
22,
1,
1,
1,
22,
3,
3036,
000000000000000008000000000000000000000000000000,
3036,
000000000000000008000000000000000000000000000000,
1017,
00000008,
,
#GOGOSTART
11,
1,
11,
1,
1110,
500000000000000000000000000008000000000000000000,
1110,
500000000000000000000000000008000000000000000000,
12,
12,
12,
33,
6,
000000000000000000000008000000000000000000000000,
#GOGOEND
1,
11,
1,
11,
1,
11,
1,
7,
8,
,
#END
