//TJADB Project
TITLE:Gingira Ginga
TITLEJA:ギンギラ銀河
SUBTITLE:--Strawberry Prince & NayutalieN/Yo-kai Watch Jam
SUBTITLEJA:「妖怪学園Y 〜Nとの遭遇〜」より
BPM:157
WAVE:Gingira Ginga.ogg
OFFSET:-0.718
DEMOSTART:46.538

COURSE:Oni
LEVEL:6
BALLOON:8
SCOREINIT:2750
SCOREDIFF:0
#START
3000001010102020,
3000001010101020,
3000001010102020,
1012101010004000,
1000100010111020,
1010102010000000,
1000100010111020,
1010101020002000,
1000100010221020,
1010102010000000,
1000100010221020,
0030304040000011,
11201211,
11211020,
2000002020000011,
1010201010000011,
11201211,
11211020,
2000002020000011,
1010201010000000,
10101122,
11221120,
1000100110102020,
11221120,
1001100110102020,
11221120,
10101012,
11101211,
12101212,
70008000,
#GOGOSTART
1011102010111020,
1020101010002000,
1011102010111020,
1020101010002000,
10112022,
12112012,
10121012,
3344,
1022102010221020,
12111020,
1022102010221020,
12112020,
10112022,
12112012,
10121010,
50000008,
#GOGOEND
3000001010102020,
3000001010101020,
3000001010102020,
1012101010004000,
3000002020101010,
3000002010101010,
3000002020101010,
1012101010004000,
1000100010221020,
1010102010000000,
1000100010221020,
0030304040004000,
#END

COURSE:Hard
LEVEL:4
BALLOON:7
SCOREINIT:3780
SCOREDIFF:0
#START
300000000000000000000000100000000000100000000000,
300000000000000000000000100000000000100000000000,
300000000000000000000000100000000000100000000000,
100000100000100000000000100000000000400000000000,
100000000000100000000000100000100000100000000000,
100000000000100000100000100000000000000000000000,
100000000000100000000000100000100000100000000000,
100000000000100000100000200000000000200000000000,
100000000000100000000000100000100000100000000000,
100000000000100000100000100000000000000000000000,
100000000000100000000000100000100000100000200000,
000000300000300000400000400000000000000000200000,
100000000000100000000000100000200000100000200000,
100000100000200000100000100000000000200000000000,
200000000000000000200000200000000000000000100000,
100000000000100000100000100000000000000000200000,
100000000000100000000000100000200000100000200000,
100000100000200000100000100000000000200000000000,
200000000000000000200000200000000000000000100000,
100000000000100000100000100000000000000000000000,
100000000000100000000000100000100000200000000000,
100000100000200000100000100000000000200000000000,
100000000000100000000000100000100000200000000000,
100000200000200000100000100000000000200000000000,
100000000000100000000000100000100000200000000000,
100000100000200000100000100000000000200000000000,
100000000000100000000000100000000000100000100000,
100000000000100000000000100000200000100000000000,
100000200000100000000000100000100000100000100000,
700000000000000000800000000000000000000000000000,
#GOGOSTART
100000000000100000100000100000000000100000100000,
100000000000100000000000200000000000200000000000,
100000000000100000100000100000000000100000100000,
100000000000100000000000200000000000200000000000,
100000000000100000100000200000000000200000000000,
100000100000100000100000100000000000000000000000,
100000000000200000000000100000000000200000000000,
300000000000300000000000400000000000400000000000,
100000000000100000100000100000000000100000100000,
100000000000100000000000200000000000200000000000,
100000000000100000100000100000000000100000100000,
100000000000100000000000200000000000200000000000,
100000000000100000100000200000000000200000000000,
100000100000100000100000100000000000000000000000,
100000000000200000000000100000000000200000000000,
500000000000000000000000000000000000000080000000,
#GOGOEND
300000000000000000000000100000000000100000000000,
300000000000000000000000100000000000100000000000,
300000000000000000000000100000000000100000000000,
100000100000100000000000100000000000400000000000,
300000000000000000000000200000000000200000000000,
300000000000000000000000200000000000200000000000,
300000000000000000000000200000000000200000000000,
100000100000100000000000100000000000400000000000,
100000000000100000000000100000100000100000000000,
100000000000100000100000100000000000000000000000,
100000000000100000000000100000100000100000200000,
000000300000300000400000400000000000300000000000,
#END

COURSE:Normal
LEVEL:3
BALLOON:5,5,10,5
SCOREINIT:7550
SCOREDIFF:0
#START
300000000000000000000000100000000000000000000000,
300000000000000000000000100000000000000000000000,
300000000000000000000000100000000000000000000000,
100000000000100000000000100000000000000000000000,
100000000000000000000000100000000000000000000000,
100000000000100000000000100000000000000000000000,
100000000000000000000000100000000000000000000000,
200000000000200000000000200000000000000000000000,
100000000000000000000000100000000000000000000000,
100000000000100000000000100000000000000000000000,
100000000000000000000000100000000000000000000000,
700000000000000000800000000000000000000000000000,
100000000000000000000000100000000000100000000000,
100000000000000000000000000000000000200000000000,
200000000000000000200000200000000000000000000000,
100000000000000000000000100000000000000000000000,
100000000000000000000000100000000000100000000000,
100000000000000000000000000000000000200000000000,
200000000000000000200000200000000000000000000000,
100000000000000000000000100000000000000000000000,
100000000000100000000000100000000000000000000000,
200000000000200000000000200000000000000000000000,
100000000000100000000000100000000000000000000000,
100000000000000000000000200000000000000000000000,
100000000000100000000000100000000000000000000000,
200000000000200000000000200000000000000000000000,
100000000000000000000000100000000000000000000000,
100000000000000000000000200000000000000000000000,
100000000000100000000000100000000000100000000000,
700000000000000000800000000000000000000000000000,
#GOGOSTART
100000000000100000000000100000000000100000000000,
200000000000000000000000200000000000000000000000,
100000000000100000000000100000000000100000000000,
200000000000000000000000200000000000000000000000,
100000000000100000000000200000000000000000000000,
100000000000100000000000100000000000000000000000,
700000000000000000000000000000000000000000000000,
000000000000000000800000000000000000000000000000,
100000000000100000000000100000000000100000000000,
200000000000000000000000200000000000000000000000,
100000000000100000000000100000000000100000000000,
200000000000000000000000200000000000000000000000,
100000000000100000000000200000000000000000000000,
100000000000100000000000100000000000000000000000,
500000000000000000000000000000000000000000000000,
000000000000000000000000000080000000000000000000,
#GOGOEND
300000000000000000000000100000000000000000000000,
300000000000000000000000100000000000000000000000,
300000000000000000000000100000000000000000000000,
100000000000100000000000100000000000000000000000,
400000000000000000000000200000000000000000000000,
400000000000000000000000200000000000000000000000,
400000000000000000000000200000000000000000000000,
100000000000100000000000100000000000000000000000,
100000000000000000000000100000000000000000000000,
100000000000100000000000100000000000000000000000,
100000000000000000000000100000000000000000000000,
700000000000000000800000000000000000000000000000,
#END

COURSE:Easy
LEVEL:2
BALLOON:4,4,8,5
SCOREINIT:11460
SCOREDIFF:0
#START
300000000000000000000000000000000000000000000000,
300000000000000000000000000000000000000000000000,
300000000000000000000000000000000000000000000000,
100000000000100000000000100000000000000000000000,
100000000000000000000000100000000000000000000000,
100000000000000000000000000000000000000000000000,
100000000000000000000000100000000000000000000000,
200000000000000000000000200000000000000000000000,
100000000000000000000000100000000000000000000000,
100000000000000000000000000000000000000000000000,
100000000000000000000000100000000000000000000000,
700000000000000000800000000000000000000000000000,
100000000000000000000000100000000000000000000000,
100000000000000000000000000000000000200000000000,
200000000000000000000000200000000000000000000000,
100000000000000000000000000000000000000000000000,
100000000000000000000000100000000000000000000000,
100000000000000000000000000000000000200000000000,
200000000000000000000000200000000000000000000000,
100000000000000000000000000000000000000000000000,
100000000000000000000000100000000000000000000000,
100000000000000000000000000000000000000000000000,
100000000000000000000000100000000000000000000000,
100000000000000000000000000000000000000000000000,
100000000000000000000000100000000000000000000000,
100000000000000000000000000000000000000000000000,
200000000000000000000000000000000000000000000000,
200000000000000000000000000000000000000000000000,
100000000000100000000000100000000000000000000000,
700000000000000000800000000000000000000000000000,
#GOGOSTART
100000000000100000000000100000000000000000000000,
100000000000000000000000100000000000000000000000,
100000000000100000000000100000000000000000000000,
100000000000000000000000100000000000000000000000,
100000000000000000000000000000000000000000000000,
200000000000000000000000000000000000000000000000,
700000000000000000000000000000000000000000000000,
000000000000000000800000000000000000000000000000,
100000000000100000000000100000000000000000000000,
100000000000000000000000100000000000000000000000,
100000000000100000000000100000000000000000000000,
100000000000000000000000100000000000000000000000,
100000000000000000000000000000000000000000000000,
200000000000000000000000000000000000000000000000,
500000000000000000000000000000000000000000000000,
000000000000000000000000000080000000000000000000,
#GOGOEND
300000000000000000000000000000000000000000000000,
300000000000000000000000000000000000000000000000,
300000000000000000000000000000000000000000000000,
100000000000100000000000100000000000000000000000,
300000000000000000000000000000000000000000000000,
300000000000000000000000000000000000000000000000,
300000000000000000000000000000000000000000000000,
100000000000100000000000100000000000000000000000,
100000000000000000000000100000000000000000000000,
100000000000000000000000000000000000000000000000,
100000000000000000000000100000000000000000000000,
700000000000000000800000000000000000000000000000,
#END
