//TJADB Project
TITLE:GODSONG
TITLEJA:ゴッドソング
SUBTITLE:--Band Ja Naimon! MAXX NAKAYOSHI/Goddotan
SUBTITLEJA:バンドじゃないもん!MAXX NAKAYOSHI
BPM:162
WAVE:GODSONG.ogg
OFFSET:-1.605
DEMOSTART:84.567

COURSE:Edit
LEVEL:10
BALLOON:6
SCOREINIT:390
SCOREDIFF:80
#START
2010211210210210,
2110211210210030,
3021203030212030,
3021203030222000,
2010211210210211,
2110211210210030,
3021203030212030,
3021203030104000,
200000100000201010100200100000200100000200100000,
201010100000200100100200100000200100000000300000,
3021203030212030,
3021203030222022,
200000100000201010100200100000200100000200100100,
201010100000200100100200100000200100000000300000,
300211200300300211200300,
300000201010200000300000300000200100100200100000,
2021102011011020,
1021201012212010,
2021102011011020,
1021221012212010,
2021102011011020,
1040401112212210,
2021102011011020,
1011221011221120,
#GOGOSTART
1021102012012011,
1021021012012220,
1021102012012011,
1021021211221122,
100000200100100000200000100200000100200000101010,
100000200100000200100000100200000100202020200000,
100000200100100000200000100200000100200000101010,
1221221040404040,
#GOGOEND
2021102012011020,
1021201212212010,
2021102012011020,
1021221210102010,
2021102020120120,
1022202020122010,
2021102012012012,
1011121120121120,
#GOGOSTART
100000200100100000200000100200200100200000101010,
1021021112012220,
100000200100100000200000100200200100200000101010,
1021221211221122,
100000200100100000200000100200100100200000101010,
100000200100000200101010100200000100202020200000,
100000200100100000200200100200200100200200101010,
1221221211221120,
#GOGOEND
1011101021011020,
1011101021011040,
3011103040111040,
3011103040111022,
2011102221011022,
2021102211022030,
32233223,
500008000000600008000000700000000000800000000000,
#GOGOSTART
1021201212012012,
1021201021021022,
1021201212012012,
1021201021021120,
1202112012021120,
100200000200101010200000100200000200100000202020,
100000200200100000200100100200000200101010200000,
300000000300000000300000101010100100200000000000,
1021201212012012,
1021201021022120,
2012102121021021,
200000100200100000201010200000200100100200200200,
100000200200100000200100100200000200101010200000,
100200000200101010200000100200000200101010100100,
2000001110000030,
3333,
#GOGOEND
4010211210210210,
200100100000200100100200100000200100202020202020,
200000100000201010100200100000200100000200100100,
201010100000200100100200100000200100102020100100,
100000200200100000200000102020200200100200020000,
100000200200100000200000100000200020100000202000,
100002000100100200100000100100200020100000202000,
1121122010121122,
#END

COURSE:Oni
LEVEL:8
BALLOON:5,5,40
SCOREINIT:420
SCOREDIFF:100
#START
2011101010010020,
2011101020020030,
32233223,
32233220,
2011101010010020,
2011101020020030,
32233223,
32233220,
2011201010010020,
2011201020020030,
3022203030222030,
3022203030222000,
2011201010010020,
1022201020020030,
3022203030222030,
3022203030222000,
2011101010010020,
0011102020101020,
2011101010010020,
0011111020101020,
2011101010010020,
0030302220101020,
2011101010010020,
0011221010201020,
#GOGOSTART
2011201010012010,
2011201011001020,
2011201010012010,
2011102011221020,
2011201010012010,
2011201011001020,
2030403030030030,
600000000000000000000000000000000008000000000000,
#GOGOEND
2011102010010020,
0011102220101020,
2011102010010020,
0011221120101020,
2011102010010020,
0022202010221020,
2011102010010020,
0011202210201020,
#GOGOSTART
2011201010012011,
2011201011001020,
2011201010012011,
2011102011221020,
2011201010012011,
2011201011001020,
2011201010012011,
1021102010201020,
#GOGOEND
1011101020000020,
1011101020000040,
30034004,
30034000,
1011102210000022,
1022201120000030,
32233223,
500008000000600008000000700000000000800000000000,
#GOGOSTART
1001102012011020,
1011201012012022,
1001102012011020,
1011201012012022,
1001202010012020,
1001202010002000,
1000201110010030,
3003003070008000,
1001102012011020,
1011201012012010,
1001102012012022,
1011201011112000,
1000202211012022,
1101202211012011,
2000001110000030,
3333,
#GOGOEND
7,
00000008,
1001100010011000,
1001100010011020,
1001102012011020,
1021102012011020,
1001102012011020,
1021122010222222,
#END

COURSE:Hard
LEVEL:6
BALLOON:4,35,25
SCOREINIT:510
SCOREDIFF:130
#START
11112002,
11102003,
30033003,
30033000,
11112002,
11202003,
30033003,
30033000,
21112002,
11102003,
30033003,
30033000,
21112002,
11202003,
30033003,
30033000,
2010101020020020,
01112111,
2000101020020020,
0022202020202000,
2010101020020020,
0030301110101000,
2010101020020020,
0011101010102000,
#GOGOSTART
2010101020020020,
1001001010002000,
2010101020020020,
1001001010102000,
2010101020020020,
1001001010002000,
2030303040040040,
600000000000000000000000000000000008000000000000,
#GOGOEND
2010101020020020,
0022202220101010,
2000101020020020,
0022222020101000,
2010101020020020,
0022202010201010,
2000101020020020,
0011101110102000,
#GOGOSTART
2010201020020020,
1001001010002000,
2010201020020020,
1001001010102000,
2010201020020020,
1001001010002000,
2010201020020020,
1001002010201000,
#GOGOEND
11112002,
11102004,
30034004,
30034000,
11112002,
11221003,
30033003,
600000000000000000000000000000000008000000000000,
#GOGOSTART
1002001010020010,
1002001010000010,
1002001010020010,
1002001010000010,
1001001020020020,
1001001010002000,
1000002220020030,
3003003070008000,
1002001010020010,
1002001010000010,
1001001020020020,
1001001010002000,
1000001110020010,
2001002010020010,
2000001110000030,
3333,
#GOGOEND
9,
,
98,
,
1111,
3333,
9,
98,
,
,
#END

COURSE:Normal
LEVEL:5
BALLOON:7,7,7,6,20,20
SCOREINIT:730
SCOREDIFF:200
#START
11111000,
1110,
33,
33,
11111000,
1210,
33,
33,
11111000,
1110,
33,
33,
11111000,
1210,
33,
33,
2000000010010010,
0011,
2000000010010010,
0011,
2000000010010010,
0022,
2000000010010010,
0022,
#GOGOSTART
2000000010010010,
500000000000000000000000000000000008000000000000,
2000000010010010,
7008,
2000000010010010,
500000000000000000000000000000000008000000000000,
2000000030030030,
600000000000000000000000000000000008000000000000,
#GOGOEND
2000000010010010,
0111,
2000000010010010,
0111,
2000000010010010,
0222,
2000000010010010,
0222,
#GOGOSTART
2000000010010010,
500000000000000000000000000000000008000000000000,
2000000010010010,
7008,
2000100010010010,
500000000000000000000000000000000008000000000000,
2000100010010010,
7008,
#GOGOEND
11111000,
1110,
34,
34,
11111000,
1210,
33,
600000000000000000000000000000000008000000000000,
#GOGOSTART
1001001010000000,
1001001010000000,
2002002020000000,
2002002020000000,
1001001010000000,
1001001010002000,
1000000020020020,
7008,
1001001010000000,
1001001010000000,
1001001010000000,
1001001010002000,
1000000010010020,
2000000010010020,
21,
3333,
#GOGOEND
9,
,
98,
,
1111,
3333,
9,
98,
,
,
#END

COURSE:Easy
LEVEL:3
SCOREINIT:550
SCOREDIFF:160
#START
11,
1110,
33,
33,
11,
1110,
33,
33,
1110,
1110,
33,
33,
1110,
1110,
33,
33,
11,
1011,
11,
1011,
11,
1011,
11,
1011,
#GOGOSTART
11,
500000000000000000000000000008000000000000000000,
11,
7008,
11,
500000000000000000000000000008000000000000000000,
13,
600000000000000000000000000008000000000000000000,
#GOGOEND
21,
1022,
21,
1022,
21,
1022,
21,
1022,
#GOGOSTART
21,
500000000000000000000000000008000000000000000000,
21,
7008,
21,
500000000000000000000000000008000000000000000000,
21,
7008,
#GOGOEND
1110,
1110,
34,
34,
1110,
2220,
33,
600000000000000000000000000008000000000000000000,
#GOGOSTART
11,
1110,
11,
2220,
1110,
1110,
11,
600000000000000000000000000008000000000000000000,
11,
1110,
11,
1110,
1011,
1022,
21,
3333,
#GOGOEND
9,
,
98,
,
1111,
3333,
9,
98,
,
,
#END
