//TJADB Project
TITLE:Hachigatsu no Saka
TITLEJA:8月の坂
SUBTITLE:--Fischer’s [Ndaho & Peketan]
SUBTITLEJA:んだほ&ぺけたん from Fischer's
BPM:130
WAVE:Hachigatsu no Saka.ogg
OFFSET:-4.576
DEMOSTART:76.210

COURSE:Oni
LEVEL:7
BALLOON:8,15,4,10
SCOREINIT:3370
SCOREDIFF:0
#START
22,
78,
22,
500000000000000000000000000000000008000000000000,
1212,
1000201210102000,
1020102210201022,
1020101120102000,
1020102210201020,
1212,
11111110,
500000000000000000000000000000000008000000000000,
1000201010112000,
1010201110202000,
1000202010112020,
1021021010202000,
1012012010202000,
1022201010202000,
1010201110102022,
500000000000000000000008000000000000400000000000,
1000201120102011,
1010201120102220,
10221122,
1022201010202011,
1021021010202000,
1022102210202000,
1022101010112020,
500000000000000000000000000008000000000000000000,
2,
22,
1000200010020020,
1002001010202000,
1000100010001011,
1000101110102022,
1020102210112020,
600000000000000000000000000000000008000000000000,
600000000000000000000000000000000008000000000000,
3344,
7008,
#GOGOSTART
3011202030221020,
1020102010001022,
1011202010221020,
12117080,
3011202030221020,
1020101020222011,
1020102210201022,
70008002,
1022102210201010,
600000000000000000000000000000000000000000000008,
,
#GOGOEND
4,
#END

COURSE:Hard
LEVEL:5
BALLOON:7,8,10,6,8
SCOREINIT:5060
SCOREDIFF:0
#START
22,
70000800,
22,
500000000000000000000000000000000008000000000000,
1212,
1000201110002000,
11102220,
1212,
11102220,
1212,
11111110,
500000000000000000000000000000000008000000000000,
10211020,
10201220,
10211020,
1001001020202000,
1001001000002000,
1112,
11201120,
500000000000000000000008000000000000400000000000,
1010201110002000,
1010201110102000,
10221022,
70000820,
1001001020002000,
10101220,
1011100010111000,
500000000000000000000000000008000000000000000000,
2,
2,
22,
2002002020000000,
1000100010001011,
1000101110002000,
3033,
600000000000000000000000000000000008000000000000,
600000000000000000000000000000000008000000000000,
3344,
70000008,//39
#GOGOSTART
30113021,
1020102010002011,
10211021,
11117008,
30113021,
1020101020200011,
1010101110101000,
70000800,
3333,
600000000000000000000000000000000000000000000008,
,//50
#GOGOEND
4,
#END

COURSE:Normal
LEVEL:3
BALLOON:6,16,6,6,6
SCOREINIT:9090
SCOREDIFF:0
#START
11,
70000800,
11,
500000000000000000000000000008000000000000000000,
1110,
11,
1111,
12,
1111,
9,
09,
8,
11,
1110,
12,
1110,
1110,
2220,
1111,
500000000000000000000008000000000000000000000000,
11,
1110,
22,
70000800,
1110,
2220,
1111,
500000000000000000000000000008000000000000000000,
2,
2,
22,
2,
1111,
1111,
3033,
600000000000000000000000000008000000000000000000,
600000000000000000000000000000000008000000000000,
4444,
70000008,//39
#GOGOSTART
30004001,
11111000,
10002001,
10111010,
30004001,
11111000,
1111,
70000800,
3333,
600000000000000000000000000000000000000000000008,
,//50
#GOGOEND
4,
#END

COURSE:Easy
LEVEL:2
BALLOON:16,6,6,6
SCOREINIT:12400
SCOREDIFF:0
#START
1,
1,
1,
500000000000000000000000000008000000000000000000,
1,
11,
1110,
1,
1110,
9,
09,
8,
11,
1,
11,
1,
11,
1110,
1110,
500000000000000000000008000000000000000000000000,
11,
1110,
11,
70000800,
1110,
1110,
11,
500000000000000000000000000008000000000000000000,
2,
2,
22,
2,
1110,
1110,
33,
600000000000000000000000000008000000000000000000,
600000000000000000000000000008000000000000000000,
4,
70000008,//39
#GOGOSTART
33,
1110,
11,
1110,
33,
2220,
1111,
70000800,
3333,
600000000000000000000000000000000000000000000008,
,//50
#GOGOEND
4,
#END
