//TJADB Project
TITLE:AV-A-MI
TITLEJA:アバみ
SUBTITLE:--Avntis
SUBTITLEJA:アバンティーズ
BPM:200
WAVE:AV-A-MI.ogg
OFFSET:-2.522
DEMOSTART:12.122

COURSE:Oni
LEVEL:8
BALLOON:5,5,50
SCOREINIT:1510
SCOREDIFF:0
#START
#SCROLL 0.75
100100200001,
100002201002,
100100200001,
100000000000000000002000200000001000000000100200,
100100200001,
100002200002,
100100200001,
#MEASURE 2/4
1,
#SCROLL 1
33,
#MEASURE 4/4
10221210,
10112120,
22102140,
100000100100100000100000500000000000000000000008,
00111022,
10111022,
1010101020021010,
1011101030002000,
2020202020012010,
11101022,
1011101020222020,
102010003000
#SCROLL 2
4000,
#SCROLL 1
1020202210102010,
100000100000200000100000600000000008000000300000,
0010101020021020,
100000100000200000100000600000000000000000000008,
#SCROLL 0.67
0202,
100000100100100000100000500000000000000000000008,
0202,
100000100100100000100000500000000000000000000008,
0202,
100100100000100100100000500000000000000000000008,
0202,
1011101070000080,
#SCROLL 0.7
12221222,
12221020,
12221222,
12221222,
#SCROLL 0.8
10121012,
12121212,
#SCROLL 0.9
11111111,
200200200000202020200000
#SCROLL 2
300000000000000000000000,//41
#SCROLL 1
#GOGOSTART
3411,
0010100022202020,
30302210,
12121212,
33401010,
0010100022222020,
30030030,
600000000000000000000000000000000000000008000000,//49
#GOGOEND
1002202010001010,
10112020,
11221103,
01114040,
10221101,
1011101020002000,
11201202,
11114040,
22222011,
1010001020021020,
11212202,
1010202030030030,
000000000000100000000000500000000008000000100000,
11112002,
20222222,
#BARLINEOFF
300000000000300000000000600000000000000000000008,
#BARLINEON
00102111,
30114022,
11112210,
40211120,
22223011,
11117008,
#SCROLL 0.5
10101110,
2240,
#SCROLL 1
22221021,
0010001120001000,
11022011,
0020201120001000,
1000101010111010,
12121000,
1111,
#SCROLL 0.5
4,
#SCROLL 1
7,
#BARLINEOFF
,
#BARLINEON
#MEASURE 1/4
#SCROLL 0.6
,
#SCROLL 0.7
,
#SCROLL 0.8
,
#SCROLL 0.9
,
#BARLINEOFF
#MEASURE 4/4
#SCROLL 1
08,
#BARLINEON
20202222,
20102001,
11101011,
12123000,
12121122,
3000222010201000,
11221122,
1110101020202000,
12221022,
12221020,
12221222,
12221020,
10121012,
12121212,
11111122,
200200200000202020200000
#SCROLL 2
300000000000000000000000,//104
#SCROLL 1
#GOGOSTART
30401022,
1000100022202020,
30302210,
12121212,
33401012,
1000100022222020,
30401110,
21212121,
40401022,
1000100022202020,
30302210,
12121212,
33401012,
1000100011111010,
32323232,
600000000000000000000000000000000000000000000008,//120
#GOGOEND
#END

COURSE:Hard
LEVEL:4
BALLOON:33
SCOREINIT:2960
SCOREDIFF:0
#START
#SCROLL 0.75
,
,
,
,
,
,
,
#MEASURE 2/4
,
#SCROLL 1
,
#MEASURE 4/4
11,
1110,
11,
100000000000100000000000500000000000000000000008,
01,
1110,
1120,
1130,
2222,
11,
1121,
1234,
1110,
100000000000100000000000600000000000000000000008,
0111,
100000000000100000000000600000000000000000000008,
0202,
100000000000100000000000500000000000000000000008,
0202,
100000000000100000000000500000000000000000000008,
0202,
100000000000100000000000500000000000000000000008,
0202,
1110,
1212,
1210,
1212,
1210,
10101011,
11111111,
5,
000000000000000000000008000000000000000000000000,//41
#GOGOSTART
3211,
01101000,
30301110,
12121212,
3411,
01101020,
30030030,
600000000000000000000000000000000000000000000008,//49
#GOGOEND
00201001,
1122,
1110,
1140,
10201001,
1110,
10201001,
1140,
20101001,
1120,
1110,
1140,
20101001,
1110,
20202222,
#BARLINEOFF
300000000000300000000000600000000000000000000008,
#BARLINEON
0101,
34,
1110,
4440,
11101000,
11101000,
22,
2240,
2212,
1110,
12,
12,
1110,
1110,
1111,
4,
9,
#BARLINEOFF
,
#BARLINEON
#MEASURE 1/4
#SCROLL 0.6
,
#SCROLL 0.7
9,
#SCROLL 0.8
,
#SCROLL 0.9
,
#BARLINEOFF
#MEASURE 4/4
#SCROLL 1
8,
#BARLINEON
,
,
1110,
1120,
1112,
3210,
1112,
1120,
1212,
1210,
1212,
1210,
10101011,
11111111,
5,
000000000000000000000008000000000000000000000000,//104
#GOGOSTART
3420,
10001222,
31,
12121212,
3410,
10001222,
3410,
21212121,
4410,
10001222,
3320,
12121212,
3410,
10001222,
3333,
600000000000000000000000000000000000000000000008,//120
#GOGOEND
#END

COURSE:Normal
LEVEL:3
BALLOON:27
SCOREINIT:5270
SCOREDIFF:0
#START
#SCROLL 0.75
,
,
,
,
,
,
,
#MEASURE 2/4
,
#SCROLL 1
,
#MEASURE 4/4
1,
11,
1,
100000000000000000000000500000000000000000000008,
,
1,
12,
13,
2,
1,
12,
1,
1,
13,
1110,
1130,
1,
22,
1,
22,
1,
22,
1,
22,
11,
11,
11,
11,
1111,
1111,
5,
000000000000000000000008000000000000000000000000,//41
#GOGOSTART
31,
02,
31,
1111,
31,
02,
6,
000000000000000000000008000000000000000000000000,//49
#GOGOEND
11,
1,
11,
1140,
11,
1110,
11,
1140,
21,
1,
11,
1140,
11,
1,
22,
#BARLINEOFF
600000000000000000000000000008000000000000000000,
#BARLINEON
,
34,
1,
34,
1,
11,
22,
24,
,
1,
11,
12,
11,
12,
1111,
4,
9,
#BARLINEOFF
,
#BARLINEON
#MEASURE 1/4
#SCROLL 0.6
,
#SCROLL 0.7
9,
#SCROLL 0.8
,
#SCROLL 0.9
,
#BARLINEOFF
#MEASURE 4/4
#SCROLL 1
8,
#BARLINEON
,
,
11,
12,
11,
31,
11,
1110,
11,
11,
11,
11,
1111,
1111,
5,
000000000000000000000008000000000000000000000000,//104
#GOGOSTART
32,
12,
32,
1111,
32,
12,
32,
1111,
32,
12,
32,
1111,
32,
12,
3333,
600000000000000000000000000000000000000000000008,//120
#GOGOEND
#END

COURSE:Easy
LEVEL:2
BALLOON:22
SCOREINIT:8280
SCOREDIFF:0
#START
#SCROLL 0.75
,
,
,
,
,
,
,
#MEASURE 2/4
,
#SCROLL 1
,
#MEASURE 4/4
1,
,
1,
100000000000000000000000500000000000000000000008,
,
1,
1,
1,
,
1,
12,
1,
1,
1,
11,
13,
1,
2,
1,
2,
1,
2,
1,
2,
1,
1,
1,
1,
11,
11,
5,
000000000000000000000008000000000000000000000000,//41
#GOGOSTART
3,
,
3,
1111,
3,
,
6,
000000000000000000000008000000000000000000000000,//49
#GOGOEND
1,
1,
11,
1,
1,
1,
11,
1,
1,
1,
11,
1,
1,
1,
22,
#BARLINEOFF
600000000000000000000000000008000000000000000000,
#BARLINEON
,
3,
,
3,
1,
1,
22,
24,
,
1,
1,
1,
1,
1,
11,
4,
9,
#BARLINEOFF
,
#BARLINEON
#MEASURE 1/4
#SCROLL 0.6
,
#SCROLL 0.7
9,
#SCROLL 0.8
,
#SCROLL 0.9
,
#BARLINEOFF
#MEASURE 4/4
#SCROLL 1
8,
#BARLINEON
,
,
1,
1,
1,
31,
1,
11,
1,
1,
1,
1,
11,
11,
5,
000000000000000000000008000000000000000000000000,//104
#GOGOSTART
3,
1,
31,
1111,
3,
1,
31,
1111,
3,
2,
31,
1111,
3,
2,
3333,
600000000000000000000000000000000000000000000008,//120
#GOGOEND
#END
