//TJADB Project
TITLE:Ao to Natsu
TITLEJA:青と夏
SUBTITLE:--Mrs. GREEN APPLE/Ao Natsu Kimi ni Koi Shita 30-Nichi
BPM:185
WAVE:Ao to Natsu.ogg
OFFSET:-1.456
DEMOSTART:40.678

COURSE:Oni
LEVEL:6
BALLOON:4
SCOREINIT:790
SCOREDIFF:225
#START
30221122,
11221122,
10110202,
1011101110000000,
10201120,
1000200011102000,
3344,
1000201110202000,
10201120,
1000200011102000,
1010201010200022,
500000000000000000000000000000000008000000000000,
10201022,
1000200010222020,
10201022,
1000200010020020,
10201022,
1000200010222020,
1000222010002220,
500000000000000000000008000000000000000000000000,
1000200010221020,
1000200010222020,
1000200010221020,
1000200010222020,
1000200010221020,
1211,
1000201110002011,
1000202210002022,
1000102010221022,
#MEASURE 6/4
100000000000100000000000500000000000000000000008000000000000000000000000,
#GOGOSTART
#MEASURE 4/4
1011100010111000,
1022200010222000,
2022200020222000,
2000102220221000,
1011100010111000,
1022200010222000,
2022200020222000,
2010202220221000,
1011100010111000,
1022100010221000,
2022200020222000,
2000102220221000,
3011200030112000,
3022200030222000,
3011201120112000,
300000000000000000000000700000000000000008000000,
32,
32,
33,
3200,
#GOGOEND
10201120,
1000200011102020,
3344,
1000201110202000,
10201120,
1000200011102000,
1010201010200022,
5,
,
,
000000000000000000000000000000000008000000000000,
#END

COURSE:2
LEVEL:3
BALLOON:29,18
SCOREINIT:990
SCOREDIFF:320
#START
9,
0,
0,
8,
1121,
1122,
1122,
500000000000000000000008000000000000000000000000,
1121,
1122,
5,
000000000000000000000008000000000000000000000000,
10101022,
1110,
10101022,
1110,
10101022,
1110,
1212,
500000000000000000000008000000000000000000000000,
10201022,
1210,
10201022,
1210,
10201022,
1022,
1210,
01,
7,
#MEASURE 6/4
008,
#GOGOSTART
#MEASURE 4/4
1122,
1122,
10112020,
10122020,
1122,
1212,
10112020,
10221020,
1122,
1122,
10112120,
10122120,
3344,
3434,
3344,
34,
32,
32,
33,
3,
#GOGOEND
1121,
10102211,
1122,
500000000000000000000008000000000000000000000000,
1121,
1122,
11211202,
5,
0,
0,
000000000000000000000000000000000008000000000000,
,
#END

COURSE:1
LEVEL:2
BALLOON:20,15
SCOREINIT:1160
SCOREDIFF:725
#START
9,
0,
0,
8,
1,
2,
33,
3,
1,
2,
500000000000000000000000000000000000000000000008,
0,
11,
1,
11,
1,
22,
2,
11,
500000000000000000000008000000000000000000000000,
1110,
1,
1110,
1,
2220,
2,
1110,
01,
7,
#MEASURE 6/4
008,
#GOGOSTART
#MEASURE 4/4
11,
11,
1111,
1,
11,
22,
1111,
1,
11,
11,
1111,
12,
3333,
32,
3333,
32,
32,
32,
33,
3,
#GOGOEND
12,
12,
33,
3,
12,
12,
33,
6,
0,
0,
000000000000000000000000000000000008000000000000,
,
#END

COURSE:0
LEVEL:2
BALLOON:16,12
SCOREINIT:1190
SCOREDIFF:950
#START
9,
0,
0,
8,
1,
1,
33,
3,
1,
1,
500000000000000000000000000000000000000000000008,
0,
1,
1,
1,
1,
2,
2,
11,
500000000000000000000008000000000000000000000000,
11,
1,
11,
1,
2,
2,
1,
0,
7,
#MEASURE 6/4
008,
#GOGOSTART
#MEASURE 4/4
11,
1,
11,
1,
11,
2,
11,
2,
11,
1,
11,
1,
33,
3,
33,
32,
3,
3,
33,
3,
#GOGOEND
1,
1,
33,
3,
1,
2,
33,
6,
0,
0,
000000000000000000000000000000000008000000000000,
,
#END
