//TJADB Project
TITLE:ALiVE
TITLEJA:ALiVE
SUBTITLE:--REDALiCE
SUBTITLEJA:REDALiCE
BPM:170
WAVE:ALiVE.ogg
OFFSET:-2.962
DEMOSTART:60.844

COURSE:Oni
LEVEL:9
BALLOON:16,16
SCOREINIT:400
SCOREDIFF:95
#START
1012201020201000,
1002100122101000,
1010201020021020,
10210112,
1012201020201000,
1002100122101000,
1010201020001022,
1000201000112022,
1210201000102022,
1210201120102210,
1000221000122000,
1000201000112022,
1210201000102022,
1210201120102210,
1000221000122000,
70000008,
11210122,
1210201000102022,
11210122,
1220201000102211,
11210122,
1210201000102022,
11210122,
1220001000102211,
12221222,
12221222,
12221222,
12221222,
1111222211112222,
1111222211112222,
1122112211221122,
100200100200100200100200100200100200101010101010,
0003,
#GOGOSTART
1020102011221020,
1020112012201000,
1222102012221020,
1222102012212011,
1020102011221020,
1020112012201000,
1222102012221111,
202020200000000000200200100000100000400000000000,
1020102011221020,
1020112012201000,
1222102212221022,
1222102212212011,
1020102011221020,
1020112012201000,
1222102212221111,
202020200000000000200200100000100000400000000000,
#GOGOEND
22020020,
20220220,
22020020,
70000008,
1010001020122020,
1210001020102022,
1010001020112020,
1220001020102211,
1010001020122020,
1210001020102022,
1010001020112020,
1220001000102211,
12221222,
12221222,
12221222,
12221222,
1111222211112222,
1111222211112222,
1122112211221122,
100200100200100200100200100200100200101010101010,
0003,
#GOGOSTART
1020102011221020,
1020112012201000,
1222102212221022,
1222112212212011,
1020102011221020,
1020112012201000,
1222102212221111,
202020200000000000200200100000100000400000000000,
1020102011221020,
1020112012201000,
1222112212221122,
1222112212212011,
1020102011221020,
1020112012201000,
1222112212221111,
202020200000000000200200100000100000400000000000,
#GOGOEND
,
#END

COURSE:Hard
LEVEL:6
BALLOON:11,11
#START
11212210,
10112110,
11212012,
10210110,
11212210,
10112110,
11212012,
10210122,
11210122,
1010201010001110,
1000111000111000,
10210122,
11210122,
1010201010001110,
1000111000111000,
70000008,
11210122,
11210122,
11210122,
1020201000101110,
11210122,
11210122,
11210122,
1020001000101110,
12221222,
12221222,
12221222,
12221222,
5,
,
,
000000000000000000000000000000000000000000000008,
0003,
#GOGOSTART
10101212,
10121220,
1110100011101000,
1110101011102000,
10101212,
10121220,
1110100011101000,
3000001110104000,
10101212,
10121220,
1110100011101000,
1110101011102000,
10101212,
10121220,
1110100011101000,
3000001110104000,
#GOGOEND
22020020,
20220220,
22020020,
70000008,
11012122,
11012122,
11012122,
1020001020101110,
11012122,
11012122,
11012122,
1020001000101110,
12221222,
12221222,
12221222,
12221222,
5,
,
,
000000000000000000000000000000000000000000000008,
0003,
#GOGOSTART
10101212,
10121220,
1110200011102000,
1110202011102000,
10101212,
10121220,
1110200011102000,
3000001110104000,
10101212,
10121220,
1110200011102000,
1110202011102000,
10101212,
10121220,
1110200011102000,
3000001110104000,
#GOGOEND
,
#END

COURSE:Normal
LEVEL:4
BALLOON:7,7
#START
1011,
1011,
1022,
2,
1011,
1011,
1022,
2,
10010020,
10010020,
10010020,
10010020,
10010020,
10010020,
10010020,
70000008,
10010110,
10010110,
10010110,
10020010,
10010110,
10010110,
10010110,
10020010,
22,
22,
22,
22,
5,
,
,
000000000000000000000000000000000000000000000008,
0003,
#GOGOSTART
1122,
1122,
11101110,
11101110,
1122,
1122,
11101110,
3033,
1122,
1122,
11101110,
11101110,
1122,
1122,
11101110,
3033,
#GOGOEND
2,
2,
2,
70000008,
10010110,
10010110,
10010110,
10020010,
10010110,
10010110,
10010110,
10020010,
22,
22,
22,
22,
5,
,
,
000000000000000000000000000000000000000000000008,
0003,
#GOGOSTART
1122,
1122,
11101110,
11101110,
1122,
1122,
11101110,
3033,
1122,
1122,
11101110,
11101110,
1122,
1122,
11101110,
3033,
#GOGOEND
,
#END

COURSE:Easy
LEVEL:3
BALLOON:5,5
#START
1,
1,
1,
1,
1,
1,
2,
2,
10010000,
10010000,
10010000,
10010000,
10010000,
10010000,
10010000,
70000008,
10010000,
10010010,
10010000,
10010010,
10010000,
10010010,
10010000,
10010010,
2,
2,
2,
2,
5,
,
,
000000000000000000000000000000000000000000000008,
,
#GOGOSTART
1111,
11,
33,
33,
1111,
11,
33,
44,
1111,
11,
33,
33,
1111,
11,
33,
44,
#GOGOEND
1,
1,
1,
70000008,
10010000,
10010010,
10010000,
10010010,
10010000,
10010010,
10010000,
10010010,
2,
2,
2,
2,
5,
,
,
000000000000000000000000000000000000000000000008,
,
#GOGOSTART
1111,
11,
33,
33,
1111,
11,
33,
44,
1111,
11,
33,
33,
1111,
11,
33,
44,
#GOGOEND
,
#END
