//TJADB Project
TITLE:Wish upon a shooting star
TITLEJA:Wish upon a shooting star
SUBTITLE:--SUi/DEEMO
SUBTITLEJA:SUi 「DEEMO」より
BPM:128
WAVE:Wish upon a shooting star.ogg
OFFSET:-2.024
DEMOSTART:107.014

COURSE:Oni
LEVEL:9
BALLOON:3,11
SCOREINIT:460
SCOREDIFF:120
#START
10000021,
00010012,
10000022,
00020020,
10000222,
10020020,
10220022,
0020202020202112,
#GOGOSTART
1002102010002011,
1002102010001022,
20121120,
1022122011121022,
1002102010202020,
1002102010001010,
1000102010201200,
100000000100000000102020200000000200100000200000,
#GOGOEND
1111,
21020210,
1111,
11020220,
10201011,
2002002010102010,
10010022,
1012101022221222,
1020201020101022,
1212202100121220,
2222120210202010,
100000200000000000200000202020202020200200200200,
1022120210022212,
100000000100000000100000200000200000200000202020,
1010122212221212,
100222200222700000800000,
#GOGOSTART
10121012,
10201012,
1000102220101012,
22212112,
1000102010202022,
100200100201100100200200,
2211022110011020,
1122011220022022,
20121020,
1000102110102000,
10121120,
40101222,
10221212,
10221222,
70008222,
12223040,
#GOGOEND
22220022,
00020011,
22220021,
00020020,
2020101011102010,
12221122,
220000200000200000200000100200100200100200100200,
100100100100100100100100101010101010200000000000,
#GOGOSTART
1002102010202020,
1002102010001000,
10201022,
1022122011121022,
1002102010202020,
1002102010001011,
10121210,
1000200030030030,
#GOGOEND
2222
#GOGOSTART
122211221222,
0011222212112112,
2121212112121212,
100200200200102020200200100100100100200200200200,
1211121212121221,
100000202020100100202020100100202020100100200200,
1221221212212212,
1212212212212211,
#GOGOEND
10000022,
0022,
30000022,
100000000000101010202020100000100100200000000000,
3,
#END

COURSE:Hard
LEVEL:6
BALLOON:4,12,8,8,8
SCOREINIT:480
SCOREDIFF:120
#START
10000022,
00010012,
10000022,
00020020,
10000222,
10010020,
10220022,
0020202020202011,
#GOGOSTART
1001102010002000,
1001102010001000,
20120120,
1001002010001011,
1001102010201020,
1001102010001010,
1000102000200200,
1001002220020020,
#GOGOEND
1111,
21020210,
1111,
11020220,
10201011,
2002002010101000,
10010022,
100000100000200000100000500000000000000008000000,
1020201020101011,
1010201100002000,
12021221,
1001002070000080,
1011010110022020,
1001001020202020,
10221121,
7008,
#GOGOSTART
10121012,
10201012,
1000102220101011,
11212012,
1000102010001022,
22121022,
7083,
7084,
20121020,
10121120,
10121120,
40101222,
10221202,
10221222,
70008222,
12223040,
#GOGOEND
22220022,
00020011,
22220021,
00020020,
22111121,
10221120,
2020202022202220,
500000000000000000000000000000000008000000000000,
#GOGOSTART
1001102010202020,
1001102010001000,
10201022,
12121020,
1001102010202020,
1001102010001011,
10121210,
1000200030030030,
#GOGOEND
2000
#GOGOSTART
300022201000,
1010111010101110,
12121212,
1110201110102000,
1011101010201020,
1020102010001110,
1001001020020020,
1110111011102000,
#GOGOEND
20000022,
0022,
30000022,
10101140,
3,
,
,
,
#END

COURSE:Normal
LEVEL:5
BALLOON:7,7,10,4,4,7
#START
10000022,
00010012,
10000022,
00020020,
10000222,
10010020,
5,
000000000000000000000000000008000000000000000000,
#GOGOSTART
1112,
10101210,
20120120,
7008,
1112,
10101210,
2000102000200200,
7008,
#GOGOEND
11,
2,
11,
2,
11,
2022,
10010020,
10101210,
1021,
1021,
1021,
100000000000000000000000500000000008000000000000,
1012,
10002222,
10001011,
7008,
#GOGOSTART
10101022,
1212,
10102210,
11201120,
10101022,
1212,
10107008,
20207008,
20010020,
20120120,
10210120,
40002220,
10221202,
10220222,
7082,
1234,
#GOGOEND
20000022,
00010011,
20000022,
00010010,
2212,
10121210,
20202222,
500000000000000000000000000000000008000000000000,
#GOGOSTART
10121010,
10121020,
10201022,
12121000,
10121010,
10121020,
1212,
1130,
#GOGOEND
2
#GOGOSTART
121,
10101210,
12121210,
11111110,
11221120,
11221120,
12121210,
11111110,
#GOGOEND
20000022,
0022,
30000022,
10101140,
3,
,
,
,
#END

COURSE:Easy
LEVEL:4
BALLOON:5,5,8,6,6,5
#START
10000001,
00010020,
10000002,
00020020,
1002,
10010020,
5,
000000000000000000000000000008000000000000000000,
#GOGOSTART
11,
1011,
20020020,
7008,
11,
1011,
20020200,
7008,
#GOGOEND
1,
2,
1,
2,
1,
22,
10010020,
1022,
12,
12,
12,
100000000000000000000000500000000008000000000000,
11,
1022,
1011,
7008,
#GOGOSTART
1110,
1212,
1110,
1212,
1110,
1212,
7008,
7008,
2002,
20020020,
10010010,
41,
11,
1,
7008,
13,
#GOGOEND
20000002,
00010010,
20000001,
00010010,
2202,
1111,
2222,
500000000000000000000000000000000008000000000000,
#GOGOSTART
1112,
1110,
1212,
1110,
1112,
1110,
1212,
1130,
#GOGOEND
2
#GOGOSTART
101,
1110,
1112,
1110,
1212,
1111,
1212,
1111,
#GOGOEND
20000002,
0022,
3002,
1114,
3,
,
,
,
#END
