//TJADB Project
TITLE:Isso Kono Mama de
TITLEJA:いっそこのままで
SUBTITLE:--Mifmei feat. Aizawa
SUBTITLEJA:ミフメイ(BNSI) feat. 相沢
BPM:190
WAVE:Isso Kono Mama de.ogg
OFFSET:-1.571
DEMOSTART:41.932 //shinuchi:
4030/2910/2070/1240

COURSE:Oni
LEVEL:9
BALLOON:6
SCOREINIT:410,1310
SCOREDIFF:108
#START
3,
0033,
14000007,
00008330,
000000000000500000000000000000000008000000300000,
0000002220101030,
00230023,
0011104000401000, //8
#GOGOSTART
1000201110200022,
1020002210201020,
1000201110200022,
1020002210201022,
1000201110200022,
1022202210201022,
#GOGOEND
2002202000200020,
0020002000111000, //16
11211122,
12212121,
11211212,
12212210,
11211122,
12212121,
1022201020201020,
12212230, //24
1000200210102010,
0010201210102000,
1110200210102010,
0010201210102212,
1000200210102010,
0010201210102000,
1110201110201110,
1020101120300000, //32
20022002,
20220000,
20022002,
20220000,
20022002,
20220000,
20022002,
20220011, //40
1000102210001022,
1022101010222000,
1011102210111022,
1022101010201111,
1011102211111022,
1122101110201111,
0,
0,
#MEASURE 6/4
0
#SCROLL 0.75
#GOGOSTART
4
#GOGOEND
#SCROLL 1
1, //49
#MEASURE 4/4
3000300020300022,
1000221000221000,
23023023,
000000200000300000000000
#GOGOSTART
600000000008000000000000,
#GOGOEND
3000203000203022,
2210101010302022,
1022221022221022,
2210222212221222, //57
#GOGOSTART
000200
#GOGOEND
30,
3000221000221000,
23023023,
0020300210102022,
1020222210121010,
1040002030203022,
1000102012221222,
1222122212221222, //65
#GOGOSTART
1000200210102010,
0210201212102010,
1110201210102012,
1010102212104000,
1000200210102010,
0010201212102022,
1022221022221022,
2210222210104000, //73
1002201020102110,
2010200210102000,
1110201210102010,
0010220212102022,
1022221222221222,
2212222212221111,
1012221012221011,
1210111210102000, //81
#GOGOEND
1001101020002010,
1110101020002020,
1001101020002010,
1122101020101010,
1001101020002010,
1110101020002020,
1001101020002010,
1122104000104000, //89
#GOGOSTART
1002102010221020,
1022102010221022,
1022122210221222,
1022122212221222,
1111221122112212,
1111221122112222,
#GOGOEND
20022002,
20220000,
0, //98
#END

COURSE:Hard
LEVEL:7
BALLOON:6,17,21,6,21
SCOREINIT:580,2400
SCOREDIFF:145
#START
3,
0033,
14000007,
0083,
000000000000500000000000000000000008000000300000,
00000003,
00230023,
00040400, //8
#GOGOSTART
1000201110200020,
12021212,
1000201110200020,
12021212,
1000201110200020,
12021212,
#GOGOEND
7,
00080000, //16
11201122,
11201120,
11201212,
12202210,
11201122,
11201120,
7,
0008, //24
10201021,
01201120,
10201121,
01201120,
10201021,
01201050,
0,
000000000000000000000000000008000000000000000000, //32
20022002,
20220000,
20022002,
20220000,
20022002,
20220000,
20022002,
20220011, //40
10121012,
10110020,
10121012,
10110020,
11121112,
12110020,
0,
0,
#MEASURE 6/4
0
#GOGOSTART
4
#GOGOEND
1, //49
#MEASURE 4/4
30302302,
30230230,
23023023,
000000200000300000000000
#GOGOSTART
600000000008000000000000,
#GOGOEND
30230230,
23020300,
1000201022201000,
2010222010001000, //57
#GOGOSTART
000200
#GOGOEND
30,
30230230,
23023023,
03003030,
30030300,
03003030,
5,
000000000000000000000000000008000000000000000000, //65
#GOGOSTART
10201121,
0010200011102000,
11201120,
11101140,
10201121,
0010200011102000,
1000201022201000,
17000080,
10201121,
21201020,
1110200010102010,
01201020,
5,
000000000000000000000000000008000000000000000000,
7,
0008, //81
#GOGOEND
10012001,
10102022,
10012001,
10112120,
10012001,
10112022,
10012001,
10140140, //89
#GOGOSTART
10101210,
12121212,
10121210,
12121212,
1020111020111020,
1110201110201020,
#GOGOEND
20022002,
20220000,
0, //98
#END

COURSE:Normal
LEVEL:6
BALLOON:6,12,16,6,16
SCOREINIT:610,3450
SCOREDIFF:165
#START
3,
0033,
00000007,
08,
000000000000500000000000000000000008000000300000,
00000003,
00030006,
000000000000000000000000000008000000000000000000,
#GOGOSTART
10201002,
12021210,
10201002,
12021210,
10201002,
12021210,
#GOGOEND
7,
00080000, //16
1102,
1211,
1102,
1211,
1102,
1212,
7,
0008,
10201011,
0212,
10201011,
0212,
10201011,
0215,
0,
000000000000000000000000000008000000000000000000, //32
22,
20220000,
22,
20220000,
22,
20220000,
22,
20220020,
1110,
10110020,
10121010,
10110020,
10121012,
10110020,
0,
0,
#MEASURE 6/4
0
#GOGOSTART
4
#GOGOEND
0, //49
#MEASURE 4/4
30300300,
30030030,
03003003,
000000000000300000000000
#GOGOSTART
600000000008000000000000,
#GOGOEND
30030030,
03000300,
10210210,
21021010,
#GOGOSTART
000200
#GOGOEND
30,
30030030,
03003003,
03003030,
30030300,
03003030,
5,
000000000000000000000000000008000000000000000000, //65
#GOGOSTART
10201011,
0212,
1112,
11101000,
10201011,
00201120,
10110110,
17000080,
10201021,
21201020,
10201011,
0212,
5,
000000000000000000000000000008000000000000000000,
7,
0008, //81
#GOGOEND
10012000,
1120,
10012000,
10102120,
10012000,
1120,
10012000,
1124,
#GOGOSTART
10101210,
10101212,
10101210,
10101212,
10121210,
12121212,
#GOGOEND
22,
20220000,
0, //98
#END

COURSE:Easy
LEVEL:4
BALLOON:6,9,13,5,13
SCOREINIT:480,4990
SCOREDIFF:133
#START
3,
0033,
03000007,
08,
00000003,
00000003,
00030006,
000000000000000000000000000008000000000000000000,
#GOGOSTART
11,
1011,
11,
1011,
11,
1011,
#GOGOEND
7,
00080000, //16
1102,
0202,
1102,
0202,
1102,
0202,
7,
0008,
1012,
0212,
1012,
0212,
1012,
0212,
11,
11, //32
22,
2200,
22,
2200,
22,
2200,
22,
2200,
11,
1100,
11,
1100,
1111,
1111,
0,
0,
#MEASURE 6/4
0
#GOGOSTART
4
#GOGOEND
0, //49
#MEASURE 4/4
30300300,
30030030,
03003003,
000000000000300000000000
#GOGOSTART
600000000008000000000000,
#GOGOEND
30030030,
03000300,
10010010,
01001010,
#GOGOSTART
000
#GOGOEND
3,
30030030,
03003003,
0033,
30030300,
03003030,
5,
000000000000000000000000000008000000000000000000, //65
#GOGOSTART
11,
1212,
11,
1110,
11,
1212,
10010010,
07000080,
11,
1212,
11,
1110,
5,
000000000000000000000000000008000000000000000000,
7,
0008, //81
#GOGOEND
12,
12,
12,
1120,
12,
12,
12,
1120,
#GOGOSTART
11,
1110,
11,
1110,
1111,
1111,
#GOGOEND
22,
2200,
0, //98
#END
