//TJADB Project
TITLE:Fly again!
TITLEJA:Fly again!
SUBTITLE:--Yoshihito Yano feat. Takayoshi Tanimoto
SUBTITLEJA:feat.谷本貴義
BPM:202
WAVE:Fly again!.ogg
OFFSET:-1.372
DEMOSTART:88.104

COURSE:Oni
LEVEL:7
BALLOON:10,12
SCOREINIT:1800
SCOREDIFF:0
#START
3,
2,
1,
1,
33,
30003022,
10112001,
10112112,
10112101,
10112112,
1000202210102010,
11212122,
70000822,
1010202210002000,
10012010,
21112000,
10012010,
2010101020000022,
#MEASURE 3/4
100120,
101222,
100000111000,
#MEASURE 5/4
1011223030,
#MEASURE 4/4
10012010,
21112210,
20012010,
21112122,
#MEASURE 3/4
200120,
101222,
100000111000,
#MEASURE 5/4
10001010222030400000,
#MEASURE 4/4
10112110,
1110101020101020,
0011101020101000,
1110101020102020,
1000111020101000,
2210101020101020,
1000111020002220,
10102011,
10112110,
1110101020101022,
2000111020101000,
1110101020102020,
1000111020002220,
1000111040000000,
30030030,
04004011,
7008,
34,//48
#GOGOSTART
3000201110102010,
1000201110202010,
1000201110102010,
1000201110222010,
1000201110102010,
1011202210004040,
0010201110102010,
1000201110202010,
1000201110102010,
1000201110222010,
3011102010222020,
3434,//60
#GOGOEND
5,
000000000008000000000000000000000000200000100000,
01,
1110102000001110,
1020000022204010,
02,
1110102000001110,
1020000022204000,
0000000020222022,
10121020,
12120101,
5,
000000000000000000000000000000000008000000000000,
34012122,//74
#GOGOSTART
3000201110102010,
1000201110202010,
1000201110102010,
1000201110222010,
1000201110102010,
1011202210004040,
0011201110112010,
1011201110222010,
1011201110112010,
1011201110222010,
3011202010112020,
11221120,
4022101020221010,
22112210,
3011202010221020,
30403046,
,
000000000000000000000000000000000000000008000000,//92
#GOGOEND
#END

COURSE:Hard
LEVEL:4
BALLOON:16,16,8
SCOREINIT:2960
SCOREDIFF:0
#START
3,
2,
1,
1,
33,
33,
1120,
10112010,
1120,
10112010,
1212,
10221022,
7,
08,
10011010,
21102000,
10011010,
21102000,
#MEASURE 3/4
100110,
100220,
100110,
#MEASURE 5/4
500000000000000000000000000000000008000000000000000000000000,
#MEASURE 4/4
10011010,
21102000,
10011010,
21102020,
#MEASURE 3/4
100110,
100220,
100110,
#MEASURE 5/4
500000000000000000000000000000000008000000000000000000000000,
#MEASURE 4/4
10112010,
11102012,
0121,
11102022,
10112010,
11102012,
7,
08,
10112010,
11102012,
0121,
11102022,
30002011,
1120,
30030030,
04004000,
7008,
34,//48
#GOGOSTART
30211020,
10211120,
10221020,
10221120,
1011100020222000,
1011100020004040,
00211020,
10211120,
10221020,
10221120,
3122,
1212,//60
#GOGOEND
5,
000000000008000000000000000000000000200000000000,
01,
10120010,
12001040,
02,
10120010,
12001040,
02,
10021020,
10120205,
,
000000000000000000000000000000000008000000000000,
01011010,//74
#GOGOSTART
30211022,
10211120,
10221022,
10221120,
1011100020222000,
1011100020004040,
00211022,
10211120,
10221022,
10221120,
3111,
1211,
4222,
2122,
3344,
30403046,
,
000000000000000000000000000000000000000008000000,//92
#GOGOEND
#END

COURSE:Normal
LEVEL:3
BALLOON:12,12,8,8,8
SCOREINIT:6370
SCOREDIFF:0
#START
3,
1,
1,
1,
33,
33,
11,
1120,
11,
1120,
1110,
2220,
7,
08,
1011,
01,
1011,
01,
#MEASURE 3/4
1,
1,
1,
#MEASURE 5/4
500000000000000000000000000000000008000000000000000000000000,
#MEASURE 4/4
1011,
02,
1011,
02,
#MEASURE 3/4
1,
1,
1,
#MEASURE 5/4
500000000000000000000000000000000008000000000000000000000000,
#MEASURE 4/4
1011,
10001001,
0110,
1022,
12,
11,
7,
08,
1011,
10001001,
0110,
1022,
11,
22,
6,
000000000000000000000008000000000000000000000000,
7,
8,//48
#GOGOSTART
31,
1110,
11,
2220,
12,
7,
8110,
1110,
11,
2220,
31,
11,//60
#GOGOEND
5,
000000000008000000000000000000000000000000000000,
,
10010010,
01001030,
02,
10010010,
01001030,
02,
11,
10010105,
,
000000000000000000000000000000000008000000000000,
,//74
#GOGOSTART
31,
1110,
11,
2220,
12,
7,
8110,
1110,
11,
2220,
31,
11,
42,
22,
33,
40004006,
,
000000000000000000000000000000000000000008000000,//92
#GOGOEND
#END

COURSE:Easy
LEVEL:2
BALLOON:10,10,7,6,5,5,6
SCOREINIT:8680
SCOREDIFF:0
#START
3,
1,
1,
1,
33,
33,
11,
1,
11,
2,
11,
12,
7,
08,
1001,
01,
1001,
01,
#MEASURE 3/4
1,
1,
1,
#MEASURE 5/4
500000000000000000000000000000000008000000000000000000000000,
#MEASURE 4/4
1001,
02,
1001,
02,
#MEASURE 3/4
1,
1,
1,
#MEASURE 5/4
500000000000000000000000000000000008000000000000000000000000,
#MEASURE 4/4
11,
10000001,
01,
1,
1,
2,
7,
08,
11,
10000001,
01,
1,
11,
22,
6,
000000000000000000000008000000000000000000000000,
7,
8,//48
#GOGOSTART
31,
1100,
11,
1100,
11,
7,
81,
1100,
11,
1100,
31,
11,//60
#GOGOEND
6,
000000000008000000000000000000000000000000000000,
,
1001,
0017,
0008,
1001,
0017,
0008,
11,
10010005,
,
000000000000000000000000000000000008000000000000,
,//74
#GOGOSTART
31,
1100,
11,
1100,
11,
7,
81,
1100,
11,
1100,
31,
11,
42,
22,
33,
40004006,
,
000000000000000000000000000000000000000008000000,//92
#GOGOEND
#END
