//TJADB Project
TITLE:RESTART
TITLEJA:RESTART
SUBTITLE:--TOSHIMITSU
BPM:140
WAVE:RESTART.ogg
OFFSET:-2.079
DEMOSTART:87.775

COURSE:Oni
LEVEL:8
SCOREINIT:1810
SCOREDIFF:0
#START
1022202220221220,
1022202220201020,
1022202220221220,
1022202220201000,
1022202220221220,
1022202220201020,
1022202220221220,
1022202220201000,
2222202210122020,
1022201040004000,
1001001020121022,
1001001020112010,
1001001020121022,
1001001020112010,
1001001020121000,
500000000000000008000000500000000000000008000000,
500000000000000000000000000000000000000000000008,
#MEASURE 2/4
,
#SCROLL 0.75
#BPMCHANGE 280
#MEASURE 4/4
33,
#GOGOSTART
10210120,
10221120,
10210120,
11121120,
10210120,
10221120,
30030030,
11221122,
10210120,
10221120,
10210120,
11121120,
10210120,
10221120,
30030060,
000000000000000000000008000000000000000000000000,
#SCROLL 1
#BPMCHANGE 140
#GOGOEND
1001001000102100,
1012101000102100,
1001001000102100,
3000003000102100,
1001001000102100,
1012101000102100,
1001001000102100,
3010210040202100,
1120122011201220,
1002102010221220,
1120121011201210,
1002102010211120,
1220121012201210,
1002102010221220,
1210221012102210,
100000000200100000202020100000000200100000200000,
30212210,
10212210,
10211021,
1000202010221000,
10212210,
12221222,
1000101210121212,
#MEASURE 2/4
1,
#SCROLL 0.75
#BPMCHANGE 280
#MEASURE 4/4
44,
#GOGOSTART
10210120,
10221120,
10210120,
11121120,
10210120,
10221120,
30030030,
30221122,
10210120,
10221120,
500000000000000000000000000000000008000000000000,
500000000000000000000000000000000008000000000000,
6,
000000000000000000000000000000000008000000000000,
40040040,
30221122,
10210120,
10221120,
10210120,
11121120,
10210120,
10221120,
30030030,
30221122,
10210120,
10221120,
500000000000000000000000000000000008000000000000,
500000000000000000000000000000000008000000000000,
6,
,
,
000000000000000000000000000000000000000000000008,
#GOGOEND
,
,
#SCROLL 1.5
3,
#END

COURSE:Hard
LEVEL:4
BALLOON:15,15,28
SCOREINIT:4550
SCOREDIFF:
#START
1,
2,
1,
2,
1,
2,
1,
,
7,
08002020,
1001001000102000,
1001001020002000,
1001001000102000,
1001001020002000,
1001001000102000,
3030,
500000000000000000000008,
#MEASURE 2/4
00,
#MEASURE 4/4
#BPMCHANGE 280
#SCROLL 0.75
3030,
#GOGOSTART
1212,
1010,
1212,
1020,
1212,
1010,
5,
000008000000000000000000,
1212,
1010,
1212,
1020,
1212,
1010,
5,
000008000000000000000000,
#GOGOEND
#BPMCHANGE 140
#SCROLL 1
1001001000102000,
10020120,
1001001000102000,
30030000,
1001001000102000,
10020120,
1001001000102000,
3040,
10101012,
10101021,
10101012,
10101021,
10101012,
10101012,
10101021,
1002,
30020020,
10020020,
1002,
1022,
10020020,
3030,
600000000000000000000008,
#MEASURE 2/4
10,
#MEASURE 4/4
#BPMCHANGE 280
#SCROLL 0.75
4040,
#GOGOSTART
1212,
1012,
1012,
1210,
1212,
1012,
5,
000008000000000000000000,
1212,
1012,
500000000000000008000000,
500000000000000008000000,
9,
,
8,
,
1212,
1012,
1012,
1210,
1212,
1012,
5,
000008000000000000000000,
1212,
1012,
500000000000000008000000,
500000000000000008000000,
9,
,
,
,
#GOGOEND
8,
,
#SCROLL 1.5
3,
#END

COURSE:Normal
LEVEL:3
BALLOON:15,10,20
SCOREINIT:9990
SCOREDIFF:
#START
1,
2,
1,
2,
1,
2,
1,
,
7,
00080000,
3,
1022,
3,
1022,
3,
3030,
500000000000000000000008,
#MEASURE 2/4
00,
#MEASURE 4/4
#BPMCHANGE 280
#SCROLL 0.75
0,
#GOGOSTART
1,
1,
1010,
1,
1,
1,
5,
000008000000000000000000,
1,
1,
1010,
1,
1,
1,
5,
000008000000000000000000,
#GOGOEND
#BPMCHANGE 140
#SCROLL 1
1,
1002,
1,
30030000,
1,
1002,
1,
3030,
1011,
1002,
1011,
1002,
1011,
1002,
1011,
1002,
3002,
2002,
1002,
2002,
1002,
3030,
600000000000000000000008,
#MEASURE 2/4
10,
#MEASURE 4/4
#BPMCHANGE 280
#SCROLL 0.75
0,
#GOGOSTART
1,
2,
1010,
1010,
1,
2,
3,
,
1,
1,
500000000000000008000000,
500000000000000008000000,
9,
,
8,
,
1,
2,
1010,
1010,
1,
2,
3,
,
1,
1,
500000000000000008000000,
500000000000000008000000,
9,
,
,
,
#GOGOEND
8,
,
#SCROLL 1.5
3,
#END

COURSE:Easy
LEVEL:2
BALLOON:12,8,16
SCOREINIT:12410
SCOREDIFF:
#START
1,
1,
1,
2,
1,
1,
1,
,
7,
00080000,
3,
1010,
3,
1010,
3,
3030,
500000000000000000000008,
#MEASURE 2/4
00,
#MEASURE 4/4
#BPMCHANGE 280
#SCROLL 0.75
0,
#GOGOSTART
1,
1,
1,
,
1,
1,
5,
000008000000000000000000,
1,
1,
1,
,
1,
1,
5,
000008000000000000000000,
#GOGOEND
#BPMCHANGE 140
#SCROLL 1
1,
1,
1,
30030000,
1,
1,
1,
3030,
1010,
1,
1010,
1,
1010,
1,
1010,
1,
3,
2,
1,
2,
1,
3030,
600000000000000000000008,
#MEASURE 2/4
10,
#MEASURE 4/4
#BPMCHANGE 280
#SCROLL 0.75
0,
#GOGOSTART
1,
1,
1,
1010,
1,
1,
3,
,
1,
1,
3,
3,
9,
,
8,
,
1,
1,
1,
1010,
1,
1,
3,
,
1,
1,
3,
3,
9,
,
,
,
#GOGOEND
8,
,
#SCROLL 1.5
3,
#END
