//TJADB Project
TITLE:Favorite Days
TITLEJA:Favorite Days
SUBTITLE:--Yuuka Shidomi/DEN-ON-BU
SUBTITLEJA:日高零奈(CV:蔀 祐佳) 「電音部」より
BPM:140
WAVE:Favorite Days.ogg
OFFSET:-1.874
DEMOSTART:83.936

COURSE:Oni
LEVEL:8
BALLOON:10,6,6
SCOREINIT:630
SCOREDIFF:163
#START
1010202010002201,
0020201010002201,
0020201010002201,
000200200100100222200200,
1010202010202201,
0010202010202201,
0010101011102201,
0010220100102205,
000000000000000000000000000000008000000000000100,
0110201101102022,
1000220101202211,
0110101020222000,
4000100102102211,
1020101110222022,
1000100102102217,
08,
1020220200202202,
0020220201102202,
1020220200202205,
000000000000000000000000000008000000000000000000,
1020220200202202,
2020220200102202,
1010220210102205,
000000000000000000000000000008000000000000000000,
1021220201102202,
1021220201102211,
1021220201102205,
000000000000000000000008000000100000200200000200,
1021220201102202,
1021220201102202,
1010220210102205,
000000000000000000000000000008000000000000000000,
1000102010201202,
1020102010201202,
1020102010201205,
000000000000000000000008000000000000200200000200,
1020111010002202,
1020111010002202,
1010101011101111,
0220202270000800,
#GOGOSTART
1010201101102201,
0010201101102201,
0010201101102201,
000100100100200222200200,
1010201101102201,
0010201101102201,
0010201101102201,
0010101022203000,
1020102012201202,
1020102010201202,
1020102010201201,
11117008,
1020102011201202,
1020102010201202,
1010111011102201,
0010220100102205,
000000000000000000000000000000000008000000000100,
0010201101102022,
1000220101102211,
0010101020222000,
#GOGOEND
0000
#GOGOSTART
100212102211,
1020101110221122,
1000100212102215,
000000000000000000000000000000000008000000000000,
#GOGOEND
1,
#END

COURSE:Hard
LEVEL:7
BALLOON:7,7
SCOREINIT:780
SCOREDIFF:215
#START
1000100010001001,
0000100010001001,
0000100010001001,
0010101020222000,
1000101010002002,
0010101010002002,
0010101010002201,
0000220100002205,
000000000000000000000000000000000000000008000000,
00010110,
3000200000102001,
0010101022202000,
4000100110101000,
1020101110101000,
1000100110101007,
08,
1000220200002202,
0000220200000000,
1000220200002205,
000000000000000000000000000008000000000000000000,
1000220200002202,
0000220200002202,
0000220200002205,
000000000000000000000000000008000000000000000000,
1000220200002202,
0000220200000000,
1000220200002205,
000000000000000000000008000000000000200200000200,
0000220100002202,
0000220100002202,
0000220200002205,
000000000000000000000000000008000000000000000000,
1000101010002001,
0000101010002001,
0000101010002005,
000000000000000000000008000000000000200000000200,
0010101010002002,
01111020,
1010101011101005,
000000000000000000000008000000000000000000000000,
#GOGOSTART
1010201010001001,
0010201010001001,
0010201010001001,
0010101020222000,
1010201010001001,
0010201010001001,
0010201010001001,
01112030,
1020102010001101,
1020102010001101,
1020102010001101,
11112000,
1020102010001101,
1020102010001101,
1020102010002201,
0000220100002205,
000000000000000000000000000000000000000008000000,
0000201100101000,
3000200100102001,
0010101022202000,
#GOGOEND
0000
#GOGOSTART
100110101000,
1020101110101000,
1000100110101007,
08,
#GOGOEND
1,
,
,
#END

COURSE:1
LEVEL:3
BALLOON:7,6,12,6
SCOREINIT:870
SCOREDIFF:283
#START
11,
11,
11,
10102220,
1110,
1110,
1112,
1000200010002005,
000000000000000000000000000000000000000008000000,
00010110,
3000000000000007,
08,
4111,
10101110,
1000100010001007,
08,
1002,
1,
1000000000002005,
000000000000000000000000000008000000000000000000,
1002,
1,
1000000010000005,
000000000000000000000000000008000000000000000000,
1002,
1,
1000000000002005,
000000000000000000000008000000000000000000000000,
12,
12,
1000000010000005,
000000000000000000000000000008000000000000000000,
10101011,
10101011,
1000100010001005,
000000000000000000000008000000000000000000000000,
1112,
1112,
1010100010101005,
000000000000000000000008000000000000000000000000,
#GOGOSTART
1110,
1120,
1120,
10202220,
1110,
1120,
1120,
10222000,
10111010,
10111010,
10111011,
1120,
10111010,
10111010,
10111020,
1000200010002005,
000000000000000000000000000000000000000008000000,
00010110,
3000000000000007,
000000000000000000000000000000000000000000000008,
#GOGOEND
0
#GOGOSTART
111,
10101110,
1000100010001007,
08,
#GOGOEND
1,
,
,
#END

COURSE:0
LEVEL:2
BALLOON:5,5,10,5
SCOREINIT:980
SCOREDIFF:580
#START
1,
1,
1,
12,
1,
1,
11,
1000000020000005,
000000000000000000000000000000000000000008000000,
0,
3000000000000007,
08,
41,
1011,
1000000010000007,
08,
1,
1,
1000000000000005,
000000000000000000000000000008000000000000000000,
1,
2,
1000000010000005,
000000000000000000000000000008000000000000000000,
1,
1,
1000000000000005,
000000000000000000000008000000000000000000000000,
1,
2,
1000000010000005,
000000000000000000000000000008000000000000000000,
11,
22,
1000000010000005,
000000000000000000000008000000000000000000000000,
11,
22,
1000100010001005,
000000000000000000000008000000000000000000000000,
#GOGOSTART
11,
12,
12,
1110,
11,
12,
12,
2220,
1110,
1120,
1120,
1110,
1110,
1120,
1120,
1000000020000005,
000000000000000000000000000000000000000008000000,
0,
3000000000000007,
000000000000000000000000000000000000000000000008,
#GOGOEND
0
#GOGOSTART
010,
1011,
1000000010000007,
08,
#GOGOEND
1,
,
,
#END
