//TJADB Project
TITLE:Central Dogma Part 1
TITLEJA:Central Dogma Pt.1
SUBTITLE:--Daisuke Kurosawa
SUBTITLEJA:黒沢ダイスケ
BPM:284
WAVE:Central Dogma Part 1.ogg
OFFSET:-1.924
DEMOSTART:14.600

COURSE:Edit
LEVEL:10
BALLOON:3,3,3,10
SCOREINIT:790
SCOREDIFF:0
#START
#GOGOSTART
2000111011101110,
#GOGOEND
#MEASURE 3/4
001110111011,
#MEASURE 4/4
#GOGOSTART
2000111011101110,
#GOGOEND
#MEASURE 3/4
001110111011,
#MEASURE 4/4
#GOGOSTART
2000111011101110,
#GOGOEND
#MEASURE 3/4
001110111011,
#MEASURE 4/4
#GOGOSTART
2000112211221120,
#GOGOEND
#MEASURE 3/4
000000100100100010001000100010001000,
#MEASURE 4/4
#GOGOSTART
20220202,
#GOGOEND
02202020,
20220220,
22
#SCROLL 3
58,
#SCROLL 1
#GOGOSTART
31210201,
#GOGOEND
1120101020001000,
1011201011201010,
200100200100201010201010,
#GOGOSTART
1110201000200010,
#GOGOEND
1120102020102000,
12212212,
2210201022102011,
#GOGOSTART
1110201000200010,
#GOGOEND
1120102020102000,
12212212,
1110201110201112,
#GOGOSTART
1110201010201010,
#GOGOEND
1120102020201020,
12212212,
2210201022102011,
#GOGOSTART
1110201010201010,
#GOGOEND
1120102020201020,
12212212,
1110201110201112,
#GOGOSTART
1110102011101020,
#GOGOEND
1110102011101020,
1120201120201010,
2210221022102210,
#GOGOSTART
1110102011101020,
#GOGOEND
1110102011101020,
1120201120201010,
2011201120112110,
#GOGOSTART
1110102011101020,
#GOGOEND
1110102011101020,
1120201120201010,
2210221022102210,
#GOGOSTART
1111102000121020,
#GOGOEND
0011201020001000,
2210201000102011,
200000100100200000100000200010001000200010001000,
#GOGOSTART
1110201110201210,
#GOGOEND
1120202210201220,
1110201110201210,
100100200000200100100000100020002000100020002000,
#GOGOSTART
1110201110201210,
#GOGOEND
1120202210201220,
1110201121102010,
2220111022122020,
#GOGOSTART
1110201110201210,
#GOGOEND
1110202210201220,
1110201110201210,
100100200000200100100000100020002000100020002000,
#GOGOSTART
1110201110201210,
#GOGOEND
1120202210201220,
#GOGOSTART
1110201011102010,
#GOGOEND
100100200100200000200000100100200200200010001000,
#GOGOSTART
2220201000200010,
#GOGOEND
02102010,
1012101000101210,
100000100100200000100100200020002000100020002000,
#GOGOSTART
1110101010222010,
#GOGOEND
1110101022222050,
0080102210221110,
1022112010212010,
#GOGOSTART
1110101022221111,
#GOGOEND
200200100100200020002000100010001000500000000000,
0080102210221120,
1011212050000080,
#GOGOSTART
1110101010222010,
#GOGOEND
100100200100100010001000200010001000200000500000,
0080102210221110,
1022112010212010,
#GOGOSTART
100020000100100010001000100100100100100020000000,
#GOGOEND
100020000200100100200200100100200200500000000000,
000000000000000000000000000008000000100000100000,
500000000000000000000000000000000008000000000000,
#GOGOSTART
300000000000100100102020,
#GOGOEND
1010222010222010,
1110202011102020,
1110222050000080,
#GOGOSTART
100100100000100000100000200020002000100000100000,
#GOGOEND
1110202010212120,
100100100000200020002000100010001000200010001000,
201010200100700000800000,
#GOGOSTART
1110102011212010,
#GOGOEND
1220202022112050,
0080201020102210,
1020111070008000,
#GOGOSTART
2011102011102110,
#GOGOEND
1022201022201210,
2210121022101210,
2210121022107000,
80212121,
2211102211102000,
#GOGOSTART
3,
#GOGOEND
,
#GOGOSTART
3,
#GOGOEND
,
#GOGOSTART
3000121000100010,
0012100010001000,
1012101000100010,
000000100200100000100200100000000000100010001000,
1012101000102010,
000000100200100000100200100000200000100010001000,
1012101000102010,
000000100200100000100200100010002000100010002000,
#GOGOEND
3,
0000000000001110,
1012101000101210,
100100100100200200200000100020002000100020002000,
#GOGOSTART
1011201022101011,
2010221011102011,
1022101011201022,
1010112011212110,
1011201022101011,
2010221011102011,
2210104000400010,
2211104000400011,
1011201022101011,
2010221011102011,
1022101011201022,
1010112011212110,
1110201000102010,
0011102210221022,
1110221110221122,
1110221110221121,
500000000000000000000000000000000000000008000000,
7008,
#GOGOEND
#MEASURE 7/8
#BPMCHANGE 189
#SCROLL 1.5
30001111101000,
#SCROLL 1.4
30001111201000,
#SCROLL 1.3
30001112201000,
#SCROLL 1.2
30001122201000,
#SCROLL 1.1
30001222201000,
#SCROLL 1
30002222203030,
#MEASURE 4/4
3,
#END

COURSE:Oni
LEVEL:10
BALLOON:3,3,10
SCOREINIT:1140
SCOREDIFF:0
#START
#GOGOSTART
30110101,
#GOGOEND
#MEASURE 3/4
001110001000,
#MEASURE 4/4
#GOGOSTART
30110101,
#GOGOEND
#MEASURE 3/4
001110001000,
#MEASURE 4/4
#GOGOSTART
30110101,
#GOGOEND
#MEASURE 3/4
001110001000,
#MEASURE 4/4
#GOGOSTART
30110101,
#GOGOEND
#MEASURE 3/4
001110001000,
#MEASURE 4/4
#GOGOSTART
3,
#GOGOEND
,
,
,
#GOGOSTART
30110101,
#GOGOEND
01101010,
10110110,
1111,
#GOGOSTART
1110201000200010,
#GOGOEND
02102010,
10210210,
2211,
#GOGOSTART
1110201000200010,
#GOGOEND
02102010,
10210210,
1222,
#GOGOSTART
1110201000200010,
#GOGOEND
0011100020001000,
10210210,
2211,
#GOGOSTART
1110201000200010,
#GOGOEND
0011100020001000,
10210210,
1222,
#GOGOSTART
11121112,
#GOGOEND
11121112,
11211211,
21212121,
#GOGOSTART
11121112,
#GOGOEND
11121112,
11211211,
21212121,
#GOGOSTART
11121112,
#GOGOEND
11121112,
11211211,
21212121,
#GOGOSTART
11120102,
#GOGOEND
01202010,
20210120,
2222,
#GOGOSTART
1110201000201000,
#GOGOEND
1110201000201000,
1110201000201000,
1000201022202020,
#GOGOSTART
1110201000201000,
#GOGOEND
1110201000201000,
1110201010102010,
2220101022202020,
#GOGOSTART
1110201000201000,
#GOGOEND
1110201000201000,
1110201000201000,
1000201022202020,
#GOGOSTART
1110201000201000,
#GOGOEND
1110201000201000,
#GOGOSTART
1110201010102010,
#GOGOEND
1110202010202010,
#GOGOSTART
2220202000200020,
#GOGOEND
02102010,
10210202,
1222,
#GOGOSTART
1110101010202010,
#GOGOEND
1110101010202010,
0000100010001110,
1000222010001000,
#GOGOSTART
1110101020202010,
#GOGOEND
1110102020102010,
0000100010001110,
1020111020000000,
#GOGOSTART
1110101010202010,
#GOGOEND
1110101020202010,
0000100010001110,
1000222010001000,
#GOGOSTART
1110101022202020,
#GOGOEND
1110101022202050,
000000000000000000000000000000000008000000100100,
500000000000000000000000000000000008000000000000,
#GOGOSTART
3000000011102020,
#GOGOEND
11221222,
1110202010202020,
1110202010000000,
#GOGOSTART
1110101020201010,
#GOGOEND
1110202010202020,
1110202011102020,
1022201070000080,
#GOGOSTART
1110101010202010,
#GOGOEND
1110101020202010,
0000200020001110,
1020111020000000,
#GOGOSTART
2010102010102011,
#GOGOEND
1020101020101022,
21212121,
21212170,
80212121,
2011102011102000,
#GOGOSTART
3,
#GOGOEND
,
#GOGOSTART
3,
#GOGOEND
,
#GOGOSTART
30110101,
01101010,
1011101000100010,
0011101010001000,
1011101000102010,
0011101010201000,
1011101000102010,
0011101010201000,
#GOGOEND
3,
0000000000001110,
11110101,
1111101010111110,
#GOGOSTART
11212211,
2010202011102000,
12211212,
2010102011102000,
11212211,
2010202011102000,
1110104000400011,
1110104000400011,
11212211,
2010202011102000,
12211212,
2010102011102000,
1110201000102010,
0011102010201000,
1110201000221000,
1110201000221000,
500000000000000000000000000000000000000008000000,
7008,
#GOGOEND
#MEASURE 7/8
#BPMCHANGE 189
#SCROLL 1.5
30001110001000,
#SCROLL 1.4
30001110001000,
#SCROLL 1.3
30001210001000,
#SCROLL 1.2
30001110001000,
#SCROLL 1.1
30001110001000,
#SCROLL 1
30001210003030,
#MEASURE 4/4
3,
#END

COURSE:Hard
LEVEL:8
BALLOON:2,2,8,7
SCOREINIT:1470
SCOREDIFF:0
#START
#GOGOSTART
30110101,
#GOGOEND
#MEASURE 3/4
011010,
#MEASURE 4/4
#GOGOSTART
30110101,
#GOGOEND
#MEASURE 3/4
011010,
#MEASURE 4/4
#GOGOSTART
30110101,
#GOGOEND
#MEASURE 3/4
011010,
#MEASURE 4/4
#GOGOSTART
30110101,
#GOGOEND
#MEASURE 3/4
011010,
#MEASURE 4/4
#GOGOSTART
3,
#GOGOEND
,
,
,
#GOGOSTART
30110101,
#GOGOEND
01101010,
10110110,
1111,
#GOGOSTART
10110201,
#GOGOEND
01102010,
10110110,
2211,
#GOGOSTART
10110201,
#GOGOEND
01102010,
10110110,
1222,
#GOGOSTART
10110201,
#GOGOEND
01102010,
10110110,
2211,
#GOGOSTART
10110201,
#GOGOEND
01102010,
10110110,
1222,
#GOGOSTART
11120112,
#GOGOEND
01120112,
01120111,
2222,
#GOGOSTART
11120112,
#GOGOEND
01120112,
01120111,
2222,
#GOGOSTART
11120112,
#GOGOEND
01120112,
01120111,
2222,
#GOGOSTART
11120102,
#GOGOEND
01102010,
10220220,
1222,
#GOGOSTART
11210210,
#GOGOEND
11210210,
11210210,
1,
#GOGOSTART
11210210,
#GOGOEND
11210210,
11221122,
11112000,
#GOGOSTART
11210210,
#GOGOEND
11210210,
11210210,
1,
#GOGOSTART
11210210,
#GOGOEND
11210210,
#GOGOSTART
11221122,
#GOGOEND
11221122,
#GOGOSTART
11120202,
#GOGOEND
02102020,
10210202,
1222,
#GOGOSTART
11112011,
#GOGOEND
11112021,
0111,
10221010,
#GOGOSTART
11112011,
#GOGOEND
11112021,
0111,
12222000,
#GOGOSTART
11112011,
#GOGOEND
11112021,
0111,
10221010,
#GOGOSTART
11112222,
#GOGOEND
11112225,
000000000000000000000000000000000008000000000000,
500000000000000000000000000000000008000000000000,
#GOGOSTART
30001122,
#GOGOEND
11221020,
11221122,
11221000,
#GOGOSTART
11112011,
#GOGOEND
11112011,
22112211,
22117008,
#GOGOSTART
11111120,
#GOGOEND
11111121,
0221,
12222000,
#GOGOSTART
21121120,
#GOGOEND
21121120,
21212121,
21212170,
80212121,
21121120,
#GOGOSTART
3,
#GOGOEND
,
#GOGOSTART
3,
#GOGOEND
,
#GOGOSTART
30110101,
01101010,
10110101,
01101010,
10110121,
01101210,
10110121,
01101210,
#GOGOEND
3,
,
30030307,
0008,
#GOGOSTART
11210201,
01201020,
12210201,
01201020,
11210201,
01201020,
11140400,
11140400,
11211201,
01201020,
12212201,
01201020,
11210121,
01221020,
11210210,
11210210,
500000000000000000000000000000000000000008000000,
7008,
#GOGOEND
#MEASURE 7/8
#BPMCHANGE 189
#SCROLL 1.5
30001110001000,
#SCROLL 1.4
30001110001000,
#SCROLL 1.3
30002220001000,
#SCROLL 1.2
30001110001000,
#SCROLL 1.1
30001110001000,
#SCROLL 1
30002220003030,
#MEASURE 4/4
3,
#END

COURSE:Normal
LEVEL:7
BALLOON:6,6
SCOREINIT:1980
SCOREDIFF:0
#START
#GOGOSTART
3,
#GOGOEND
#MEASURE 3/4
,
#MEASURE 4/4
#GOGOSTART
3,
#GOGOEND
#MEASURE 3/4
,
#MEASURE 4/4
#GOGOSTART
3,
#GOGOEND
#MEASURE 3/4
,
#MEASURE 4/4
#GOGOSTART
3,
#GOGOEND
#MEASURE 3/4
,
#MEASURE 4/4
#GOGOSTART
3,
#GOGOEND
,
,
,
#GOGOSTART
30110001,
#GOGOEND
01100000,
10110010,
1110,
#GOGOSTART
10110001,
#GOGOEND
01100000,
10110010,
2210,
#GOGOSTART
10110001,
#GOGOEND
01100000,
10110010,
1220,
#GOGOSTART
10110001,
#GOGOEND
01100000,
10110010,
2210,
#GOGOSTART
10110001,
#GOGOEND
01100000,
10110010,
1220,
#GOGOSTART
11101110,
#GOGOEND
11101110,
11101110,
2220,
#GOGOSTART
11101110,
#GOGOEND
11101110,
11101110,
2210,
#GOGOSTART
11101110,
#GOGOEND
11101110,
11101110,
2220,
#GOGOSTART
10110101,
#GOGOEND
01100000,
10110110,
1220,
#GOGOSTART
10110110,
#GOGOEND
10110110,
10110110,
1,
#GOGOSTART
10110110,
#GOGOEND
10110110,
11101110,
11102000,
#GOGOSTART
10110110,
#GOGOEND
10110110,
10110110,
1,
#GOGOSTART
10110110,
#GOGOEND
10110110,
#GOGOSTART
11101110,
#GOGOEND
11101110,
#GOGOSTART
10110101,
#GOGOEND
01102000,
10110101,
1220,
#GOGOSTART
11101110,
#GOGOEND
11102001,
0111,
1220,
#GOGOSTART
11101110,
#GOGOEND
11102001,
0111,
2220,
#GOGOSTART
11101110,
#GOGOEND
11102001,
0111,
1220,
#GOGOSTART
11102220,
#GOGOEND
11102225,
000000000000000000000000000000000008000000000000,
500000000000000000000000000000000008000000000000,
#GOGOSTART
30001110,
#GOGOEND
11102000,
11101110,
11102000,
#GOGOSTART
11102220,
#GOGOEND
11102000,
11102220,
11102000,
#GOGOSTART
11101110,
#GOGOEND
11102001,
0222,
1110,
#GOGOSTART
20020020,
#GOGOEND
20020020,
2222,
2222,
0222,
20020020,
#GOGOSTART
3,
#GOGOEND
,
#GOGOSTART
3,
#GOGOEND
,
#GOGOSTART
30110101,
01100000,
10110101,
01100000,
10110101,
01102020,
10110101,
01102020,
#GOGOEND
3,
,
30030307,
0008,
#GOGOSTART
10110101,
01101000,
10110201,
01101000,
10110101,
01101000,
10040400,
10040400,
10110101,
01101000,
10110201,
01101000,
10110101,
01101020,
10210210,
10210210,
500000000000000000000000000000000000000008000000,
7008,
#GOGOEND
#MEASURE 7/8
#BPMCHANGE 189
#SCROLL 1.5
3011010,
#SCROLL 1.4
3011010,
#SCROLL 1.3
3022010,
#SCROLL 1.2
3011010,
#SCROLL 1.1
3011010,
#SCROLL 1
3022033,
#MEASURE 4/4
3,
#END

COURSE:Easy
LEVEL:5
BALLOON:5,4
SCOREINIT:3430
SCOREDIFF:0
#START
#GOGOSTART
3,
#GOGOEND
#MEASURE 3/4
,
#MEASURE 4/4
#GOGOSTART
3,
#GOGOEND
#MEASURE 3/4
,
#MEASURE 4/4
#GOGOSTART
3,
#GOGOEND
#MEASURE 3/4
,
#MEASURE 4/4
#GOGOSTART
3,
#GOGOEND
#MEASURE 3/4
,
#MEASURE 4/4
#GOGOSTART
3,
#GOGOEND
,
,
,
#GOGOSTART
30000001,
#GOGOEND
0100,
10010000,
1,
#GOGOSTART
10010001,
#GOGOEND
0100,
10010000,
2,
#GOGOSTART
10010001,
#GOGOEND
0100,
10010000,
2,
#GOGOSTART
10010001,
#GOGOEND
0100,
10010000,
2,
#GOGOSTART
10010001,
#GOGOEND
0100,
10010000,
1,
#GOGOSTART
11,
#GOGOEND
1011,
11,
2,
#GOGOSTART
11,
#GOGOEND
1011,
11,
2,
#GOGOSTART
11,
#GOGOEND
1011,
11,
2,
#GOGOSTART
10010001,
#GOGOEND
0100,
10010000,
1,
#GOGOSTART
10010000,
#GOGOEND
10010000,
10010000,
1,
#GOGOSTART
10010000,
#GOGOEND
10010000,
10010000,
1120,
#GOGOSTART
10010000,
#GOGOEND
10010000,
10010000,
1,
#GOGOSTART
10010000,
#GOGOEND
10010000,
#GOGOSTART
11,
#GOGOEND
11,
#GOGOSTART
5,
#GOGOEND
000000000000000000000008000000000000000000000000,
1,
2220,
#GOGOSTART
1110,
#GOGOEND
10101001,
0110,
2220,
#GOGOSTART
1110,
#GOGOEND
10101001,
0110,
2220,
#GOGOSTART
1110,
#GOGOEND
10101001,
0110,
2220,
#GOGOSTART
1120,
#GOGOEND
10102005,
000000000000000000000000000000000008000000000000,
500000000000000000000000000000000008000000000000,
#GOGOSTART
32,
#GOGOEND
1120,
1120,
1120,
#GOGOSTART
1110,
#GOGOEND
1110,
1120,
1120,
#GOGOSTART
1110,
#GOGOEND
10101001,
0110,
1110,
#GOGOSTART
20020020,
#GOGOEND
20020020,
22,
2222,
0222,
20020020,
#GOGOSTART
3,
#GOGOEND
,
#GOGOSTART
3,
#GOGOEND
,
#GOGOSTART
10010001,
0100,
10010001,
0100,
10010001,
0100,
10010001,
0100,
#GOGOEND
3,
,
30030307,
0008,
#GOGOSTART
10010001,
0110,
10010001,
0120,
10010001,
0110,
10040400,
10040400,
10010001,
0110,
10010001,
0120,
10010001,
0112,
10010010,
10010010,
500000000000000000000000000000000000000008000000,
7008,
#GOGOEND
#MEASURE 7/8
#BPMCHANGE 189
#SCROLL 1.5
3011010,
#SCROLL 1.4
3011010,
#SCROLL 1.3
3022010,
#SCROLL 1.2
3011010,
#SCROLL 1.1
3011010,
#SCROLL 1
3022033,
#MEASURE 4/4
3,
#END
