//TJADB Project
TITLE:Hakanaki wa Gensho ni Mau
TITLEJA:儚姫は原初に舞う
SUBTITLE:--Se-U-Ra
SUBTITLEJA:Se-U-Ra
BPM:224
WAVE:Hakanaki wa Gensho ni Mau.ogg
OFFSET:-2.320
DEMOSTART:77.855

COURSE:Edit
LEVEL:10
BALLOON:4
SCOREINIT:1100
SCOREDIFF:0
#START
#MEASURE 2/4
#BARLINEOFF
2,
#BARLINEON
#MEASURE 4/4
1,
22,
1,
111010111010111011101010,
100000202001,
102100202100,
100000200001,
100001201100,
300201202201,
112211222111,
221200000000,
14,
101021101021,
101021101011,
200020001110200020001110,
220202400100,
221100111122,
122111122100,
221100111122,
122122122122,
122102122122,
122112112100,
211202201102,
101211211211,
222010200020101010201020,
102220201010201010200010,
222010200020101010201020,
102220101020100000400000,
222010200020101010201020,
102220201010201010200020,
111202111202,
111221222122,
#GOGOSTART
300202300222,
101010202020121010201010,
400202300222,
102020102020111020101020,
#GOGOEND
100010001020202010001110,
400000001000202010001110,
201121400122,
112221400400,
#GOGOSTART
300202300222,
101010202020121010201010,
400202300222,
122122112122,
#GOGOEND
111020200020101020100020,
112020100011202010200010,
444444,
201020102010201120112000,
3,
2,
2,
2,
3,
2,
2,
2,
122022222221,
111121700800,
22,
22,
300202202200,
200022200020300000300000,
312202202200,
202202300300,
311202202100,
100202300300,
300102102100,
112112300300,
101022102020101022102020,
100010002020100010001000200020002000500008000000,
#GOGOSTART
100102101200,
100022100010201010201011,
101102101200,
222010200020100020400000,
102011201020102011201020,
102011201020222020111110,
101102111202,
300000202100,
#GOGOEND
100000222222,
102022202020202022202020,
102020121010202020300000,
302202202200,
100022100010201010201011,
101202102202,
201201101102,
101022101020101022101020,
100010002020100010001000200020002000500008000000,
222101222101,
101102101300,
#SCROLL 1.2
110110110110,
#SCROLL 1.4
330330330300,
#SCROLL 1
#GOGOSTART
100202102200,
100022100010202010202011,
101202102100,
202201102200,
102011201020102011201020,
102011201010202020111110,
102011201020102011201020,
102012201020222020111110,
102011201020102011201020,
102011201010202020111110,
222301222301,
122222201100,
222020300010222020300010,
122221221100,
#GOGOEND
3,
22,
3,
111010111010111011101010,
6,
08,
#END

COURSE:Oni
LEVEL:10
SCOREINIT:1350
SCOREDIFF:0
#START
#MEASURE 2/4
#BARLINEOFF
2,
#BARLINEON
#MEASURE 4/4
1,
22,
1,
100010100010100011101010,
100000202000,
1120,
12,
100100201100,
3222,
112202202101,
221200000000,
14,
101001101001,
101001101001,
202001202001,
220202400100,
221100111122,
122101102100,
221100111122,
122102122102,
122102102102,
112102112100,
201202201102,
101201211200,
221202111202,
122101202100,
221202111202,
122112100400,
221202111202,
122101202102,
111202112200,
112201222122,
#GOGOSTART
300202300222,
100222102100,
400202300222,
122122102100,
#GOGOEND
111211,
401212,
201020400222,
112202400400,
#GOGOSTART
300202300222,
100222102100,
400202300222,
122122102200,
#GOGOEND
112202112102,
122101221201,
444444,
212121212120,
3,
2,
2,
2,
3,
2,
2,
2,
3,
,
22,
22,
300202202200,
200022200020300000300000,
300202202200,
202202300300,
300202202100,
100202300300,
300102102100,
102102300300,
122122122122,
102111222111,
#GOGOSTART
100102101200,
100022200010202010200000,
101102101200,
202202102400,
111222111222,
111212121400,
101102101202,
300000202100,
#GOGOEND
100000222222,
102200200202,
200100102300,
302202202200,
100022200010201010201010,
101202102202,
201201101100,
111222121222,
100010001000200020002000100020002000500008000000,
222101222101,
101102101300,
#SCROLL 1.2
110110110110,
#SCROLL 1.4
330330330300,
#SCROLL 1
#GOGOSTART
100202102200,
100022200010201010200000,
101202102200,
202201102200,
111222111222,
121222121222,
111222111222,
121221121221,
111222111222,
121211121211,
222301222301,
101101102200,
222301222301,
102201202200,
#GOGOEND
3,
22,
3,
100010100010100011101010,
6,
08,
#END

COURSE:Hard
LEVEL:7
BALLOON:10,25,10,8,7
SCOREINIT:2540
SCOREDIFF:0
#START
#MEASURE 2/4
#BARLINEOFF
2,
#BARLINEON
#MEASURE 4/4
1,
22,
1,
7,
8,
22,
12,
1122,
3,
200200201100,
2200,
14,
9,
,
,
98,
2111,
100100101100,
2111,
101100101100,
2111,
100100101100,
201100201100,
7,
800100101100,
100200202200,
200100101100,
1204,
1111,
100100101100,
102200102200,
100200202200,
#GOGOSTART
3230,
100101101100,
4240,
100101101100,
#GOGOEND
101202,
401200,
222400,
1140,
#GOGOSTART
3230,
100101101100,
4240,
100101101100,
#GOGOEND
100201100100,
200102200100,
6,
00000008,
,
2,
2,
2,
3,
2,
2,
2,
3,
,
22,
22,
300200202200,
2233,
300200202200,
2233,
300200202200,
1233,
300201102200,
101100300300,
22,
7008,
#GOGOSTART
100200101100,
100100101100,
100200101100,
200202200400,
1212,
111100111300,
100100202200,
3021,
#GOGOEND
1022,
102200200202,
0111,
300100202200,
100100101100,
100200101100,
202200101100,
1212,
101100101100,
2121,
7008,
1111,
3333,
#GOGOSTART
1211,
101100202200,
1211,
202200101100,
1212,
111100111100,
1212,
111100222200,
1212,
111100111100,
111300222400,
100100102200,
111300222400,
200200201100,
#GOGOEND
3,
22,
3,
1011,
6,
08,
#END

COURSE:Normal
LEVEL:5
BALLOON:7,18,6,6,6
SCOREINIT:3610
SCOREDIFF:0
#START
#MEASURE 2/4
#BARLINEOFF
2,
#BARLINEON
#MEASURE 4/4
1,
22,
1,
7,
8,
22,
12,
1120,
3,
2221,
2200,
14,
9,
,
,
98,
2111,
1110,
2111,
1120,
2111,
1110,
2121,
7,
8111,
1222,
2111,
1204,
1111,
1110,
1212,
1220,
#GOGOSTART
33,
1111,
44,
1111,
#GOGOEND
12,
42,
24,
1140,
#GOGOSTART
33,
1111,
44,
1111,
#GOGOEND
1211,
2021,
6,
00000008,
,
2,
2,
2,
3,
2,
2,
2,
3,
,
22,
22,
3022,
2033,
3022,
2033,
3022,
1033,
31,
1133,
22,
7008,
#GOGOSTART
1112,
1122,
1112,
2214,
1212,
1124,
1122,
3021,
#GOGOEND
12,
0222,
0111,
32,
1110,
11,
2220,
1110,
1120,
2121,
7008,
1110,
3330,
#GOGOSTART
1212,
1222,
1212,
2210,
1212,
1111,
1212,
1122,
1212,
1111,
33,
1112,
33,
2221,
#GOGOEND
3,
22,
3,
1011,
6,
08,
#END

COURSE:Easy
LEVEL:4
BALLOON:5,15,4,4,10,5
SCOREINIT:6330
SCOREDIFF:0
#START
#MEASURE 2/4
#BARLINEOFF
,
#BARLINEON
#MEASURE 4/4
1,
,
1,
7,
8,
22,
1,
1,
3,
22,
2,
04,
9,
,
,
98,
11,
1,
11,
2,
11,
1,
11,
7008,
0101,
0200,
0101,
0200,
11,
1,
11,
12,
#GOGOSTART
33,
1110,
44,
1110,
#GOGOEND
1,
4,
24,
1,
#GOGOSTART
33,
1110,
44,
1110,
#GOGOEND
11,
22,
6,
00000008,
,
2,
2,
2,
3,
2,
2,
2,
3,
,
22,
2,
3,
23,
3,
23,
3,
13,
31,
13,
2,
7008,
#GOGOSTART
11,
1110,
11,
2220,
7,
0008,
11,
3,
#GOGOEND
12,
0222,
01,
3,
11,
1,
22,
11,
1,
11,
7008,
11,
33,
#GOGOSTART
11,
1110,
11,
2220,
11,
1,
11,
2,
11,
1,
33,
1110,
33,
2220,
#GOGOEND
3,
2,
3,
11,
6,
08,
#END
